Please enable / Bitte aktiviere JavaScript!
Veuillez activer / Por favor activa el Javascript!>[ BURAYA TIKLAYIN ]
» » » Kung Fu Yoga - Gong fu yu jia 2017 Türkçe Altyazı BRRip 720p 1080p REMUX

Paylaş Kung Fu Yoga - Gong fu yu jia 2017 Türkçe Altyazı BRRip 720p 1080p REMUX

Filmin Adı:
Kung Fu Yoga - Gong fu yu jia 2017 Türkçe Altyazı BRRip 720p 1080p REMUX
Beğeni:

Oy kullanan 10 Kişi

Vizyon Tarihi:
28 Ocak 2017 (Çin)
Yılı - Ülke:
Çin, Hindistan
Film Türü:
Aksiyon, Macera, Komedi
Yönetmen:
Stanley Tong
Film Süresi:
1s 47Dakika
IMDB PUANI:
Konusu:
Aksiyon, macera ve komedi türündeki Kung Fu Yoga adlı film, buz dağlarında antik dönemden kalan hazineyi ele geçirmek için birbirleriyle çekişme halinde olan iki farklı grubun, serüvenlerini ele almaktadır. Bütçesi 65 milyon dolar olan Kung-Fu Yoga adlı filmin, yapımcılık görevini Maxine De Vere üstlenmiştir.
Ekleyen:
Medicus
BrtFix Özel Üyelik
Kung Fu Yoga - Gong fu yu jia 2017 Türkçe Altyazı BRRip 720p 1080p REMUX


Kung Fu Yoga - Gong fu yu jia 2017 Türkçe Altyazı BRRip 720p 1080p REMUX

BrtFix
  • Filmin Adı : Kung Fu Yoga - Gong fu yu jia 2017
  • Format : BRRip
  • Boyut: 1.3 GB
  • Rip : BFxRG
  • BrtFix
  • Filmin Adı : Kung Fu Yoga - Gong fu yu jia 2017
  • Format : 720p
  • Boyut: 5.8 GB
  • Rip : BFxRG
  • BrtFix
  • Filmin Adı : Kung Fu Yoga - Gong fu yu jia 2017
  • Format : 1080p
  • Boyut: 12.6 GB
  • Rip : BFxRG
  • BrtFix
  • Filmin Adı : Kung Fu Yoga - Gong fu yu jia 2017
  • Format : REMUX
  • Boyut: 32.2 GB
  • Rip : BFxRG



  • BrtFix Özel Üyelik
    Kung Fu Yoga - Gong fu yu jia 2017 Türkçe Altyazı BRRip 720p 1080p REMUX
    Kung Fu Yoga - Gong fu yu jia 2017 Türkçe Altyazı BRRip 720p 1080p REMUX
    Kung Fu Yoga - Gong fu yu jia 2017 Türkçe Altyazı BRRip 720p 1080p REMUX
    Video
    ID : 1
    Format : AVC
    Format/Info : Advanced Video Codec
    Format profile : [email protected]
    Format settings, CABAC : Yes
    Format settings, ReFrames : 4 frames
    Codec ID : V_MPEG4/ISO/AVC
    Duration : 1h 42mn
    Bit rate : 13.4 Mbps
    Width : 1 920 pixels
    Height : 804 pixels
    Display aspect ratio : 2.40:1
    Frame rate mode : Constant
    Frame rate : 25.000 fps
    Color space : YUV
    Chroma subsampling : 4:2:0
    Bit depth : 8 bits
    Scan type : Progressive
    Bits/(Pixel*Frame) : 0.347
    Stream size : 9.61 GiB (76%)

    Audio
    ID : 2
    Format : DTS
    Format/Info : Digital Theater Systems
    Format profile : MA / Core
    Mode : 16
    Format settings, Endianness : Big
    Codec ID : A_DTS
    Duration : 1h 42mn
    Bit rate mode : Variable / Constant
    Bit rate : 4 198 Kbps / 1 509 Kbps
    Channel(s) : 6 channels
    Channel positions : Front: L C R, Side: L R, LFE
    Sampling rate : 48.0 KHz
    Frame rate : 93.750 fps (512 spf)
    Bit depth : 24 bits
    Compression mode : Lossless / Lossy
    Stream size : 3.01 GiB (24%)
    Language : Chinese
    CBox BBCode:
    [B] [color=crimson] [Büyük][[/Büyük] Forum Konusu [Büyük]][/Büyük] [/color] [CENTER] ;brtfixlogo [br] [Büyük] [color=#000000] 👉 [/color] [url=http://brtfix.com/filmler/turkce-alt-yazi-filmler/2814-kung-fu-yoga-2017-web-dl-720p-1080p-turkce-altyazi-download-yukle-indir.html] [yeşil] [color=#FFFF00] Kung Fu Yoga - Gong fu yu jia 2017 Türkçe Altyazı BRRip 720p 1080p REMUX [/color] [/yeşil] [/url] [color=#000000] 👈 [/color] [/Büyük] [/B] [/CENTER]
    Destek İçin Yorum Yapmayı Unutmayın :)

    Yapılan Yorumlar Yönetici Tarafından Onaylandıkdan Sonra Gözükür...

    1. akif1905
      türkçe dublaj var iken neden altyazı? son paylaştığınız birçok filmi tr altyazı olarak sunmuşsunuz. nedenini merak ediyorum açıkcası. neyse. türkçe dublaj ı beklemedeyim admin kardeş. saygılar..
      • 3 Ağustos 2017 03:21
      1. Medicus
        Herkes senin gibi türkçe dublaj sever değil ondan türkçe altyazı paylaşıyoruz... Ayrıca bu filmin DuaL Türkçesi yok olanlar sinema sesi...
        BrtFix & TürkLeech
        • 3 Ağustos 2017 04:02
        1. akif1905
          altyazı severler nerede peki. hiç yorum yazan dahi yok. üstelik türkçe altyazı olsa neye yarar. işkenceden başka birşey değil. ek olarak şunu söylemeliyim. orjinal dual çıkmış olsa ekleyecek misiniz? sitenizi uzun süredir takip etmekteyim, gördüğüm kadarıyla önceki paylaşmış olduğunuz tr altyazı olan filmlerin bir süre sonra dual orjinal ses çıkmış olmasına rağmen sizde göremedim. örnek verecek olursak eğer kral arthur filmi. tr altyazı verdiniz. fakat şuan orjinal tr-en mevcut. beni yanlış anlamanızı istemem. demek istediğim tr altyazı veriyorsanız eğer, bir süre sonra dublaj çıkınca konuyu güncellemenizin düşüncesindeyim. saygılarımla. .
          • 4 Ağustos 2017 00:14
    BilgiYorum Ekleyebilmeniz için Sitemize Kayıt Olmanız Gerekmektedir.