Please enable / Bitte aktiviere JavaScript!
Veuillez activer / Por favor activa el Javascript!>[ BURAYA TIKLAYIN ]
» » » Dangal 2016 Türkçe Altyazı BRRip 720p Download Yükle İndir

Paylaş Dangal 2016 Türkçe Altyazı BRRip 720p Download Yükle İndir

Filmin Adı:
Dangal 2016 Türkçe Altyazı BRRip 720p Download Yükle İndir
Beğeni:

Oy kullanan 6 Kişi

Vizyon Tarihi:
22 Aralık 2016 (İngiltere)
Yılı - Ülke:
Hindistan
Film Türü:
Aksiyon, Biyografi, Dram
Yönetmen:
Nitesh Tiwari
Film Süresi:
2s 41Dakika
IMDB PUANI:
Konusu:
Film başarılı bir güreşçi olan Phogat’ın kızları da babaları gibi bu spora büyük ilgi duyarlar. Bu sayede hem bir güreşçi hem baba hem de bir antrenör olan Phogat’ın yaşadıkları incelikle bir dil ile hikayenin alt zemini oluşturmaktadır. Bu film için hayli kilo almak zorunda kalan ünlü oyuncu ve yönetmenin yaşadığı değişimler ve farklı yaşlardaki halleri hem etkileyici oyunculuk hem de sinematografik açıdan seyirci üzerinde takdire şayan izler bırakacaktır.
Ekleyen:
Medicus
BrtFix Özel Üyelik
Dangal 2016 Türkçe Altyazı BRRip 720p Download Yükle İndir



Dangal 2016 Türkçe Altyazı BRRip 720p Download Yükle İndir

BrtFix
  • Filmin Adı : Dangal 2016
  • Format : BRRip
  • Boyut: 1.1 GB
  • Rip : BFxRG
  • BrtFix
  • Filmin Adı : Dangal 2016
  • Format : 720p
  • Boyut: 6.6 GB
  • Rip : BFxRG



  • BrtFix Özel Üyelik
    Dangal 2016 Türkçe Altyazı BRRip 720p Download Yükle İndir
    Video
    ID : 1
    Format : AVC
    Format/Info : Advanced Video Codec
    Format profile : [email protected]
    Format settings, CABAC : Yes
    Format settings, ReFrames : 5 frames
    Codec ID : V_MPEG4/ISO/AVC
    Duration : 2h 40mn
    Bit rate : 5 188 Kbps
    Width : 1 280 pixels
    Height : 536 pixels
    Display aspect ratio : 2.40:1
    Frame rate mode : Constant
    Frame rate : 24.000 fps
    Color space : YUV
    Chroma subsampling : 4:2:0
    Bit depth : 8 bits
    Scan type : Progressive
    Bits/(Pixel*Frame) : 0.315
    Stream size : 5.83 GiB (89%)
    Writing library : x264 core 150 r2833 df79067

    Audio
    ID : 2
    Format : AC-3
    Format/Info : Audio Coding 3
    Mode extension : CM (complete main)
    Format settings, Endianness : Big
    Codec ID : A_AC3
    Duration : 2h 40mn
    Bit rate mode : Constant
    Bit rate : 640 Kbps
    Channel(s) : 6 channels
    Channel positions : Front: L C R, Side: L R, LFE
    Sampling rate : 48.0 KHz
    Frame rate : 31.250 fps (1536 spf)
    Compression mode : Lossy
    Stream size : 736 MiB (11%)
    Language : Hindi
    CBox BBCode:
    [B] [color=crimson] [Büyük][[/Büyük] Forum Konusu [Büyük]][/Büyük] [/color] [CENTER] ;brtfixlogo [br] [Büyük] [color=#000000] 👉 [/color] [url=http://brtfix.com/filmler/turkce-alt-yazi-filmler/3344-dangal-2016-turkce-altyazi-brrip-720p-download-yukle-indir.html] [yeşil] [color=#FFFF00] Dangal 2016 Türkçe Altyazı BRRip 720p Download Yükle İndir [/color] [/yeşil] [/url] [color=#000000] 👈 [/color] [/Büyük] [/B] [/CENTER]
    Destek İçin Yorum Yapmayı Unutmayın :)

    Yapılan Yorumlar Yönetici Tarafından Onaylandıkdan Sonra Gözükür...

    1. halilucler
      Linkler kırık...
      • 8 Eylül 2017 11:44
    BilgiYorum Ekleyebilmeniz için Sitemize Kayıt Olmanız Gerekmektedir.