» » » Guardians of the Galaxy Vol. 2 2017 Türkçe Altyazı BRRip 720p 1080p

Paylaş Guardians of the Galaxy Vol. 2 2017 Türkçe Altyazı BRRip 720p 1080p

Filmin Adı:
Guardians of the Galaxy Vol. 2 2017 Türkçe Altyazı BRRip 720p 1080p
Vizyon Tarihi:
28 Nisan 2017 (İngiltere)
Yılı - Ülke:
ABD
Film Türü:
Aksiyon, Macera, Bilim Kurgu
Yönetmen:
James Gunn
Film Süresi:
2s 16Dakika
IMDB PUANI:
Konusu:
Galaksinin Koruyucuları 2" filminde ekip uzayın uzak noktalarına yolculuklar ederken bir yandan da galaksiyi korumak adına farklı maceralara atılıyor. Koruyucular, artık aileleri haline gelen ekipte birbirlerini düşmanlara karşı korumak için savaşırken, Starlord olan Peter Quill’in gizemli geçmişinin sırları da çözülmeye başlıyor.
Ekleyen:
Medicus
BrtFix Özel Üyelik
Guardians of the Galaxy Vol. 2 2017 Türkçe Altyazı BRRip 720p 1080p
BrtFix
  • Filmin Adı : Guardians of the Galaxy Vol. 2 2017
  • Format : BRRip
  • Boyut: 2.0 GB
  • Rip : BFxRG
  • BrtFix
  • Filmin Adı : Guardians of the Galaxy Vol. 2 2017
  • Format : 720p
  • Boyut: 6.6 GB
  • Rip : BFxRG
  • BrtFix
  • Filmin Adı : Guardians of the Galaxy Vol. 2 2017
  • Format : 1080p
  • Boyut: 9.9 GB
  • Rip : BFxRG



  • BrtFix Özel Üyelik
    Guardians of the Galaxy Vol. 2 2017 Türkçe Altyazı BRRip 720p 1080p
    Video
    ID : 1
    Format : AVC
    Format/Info : Advanced Video Codec
    Format profile : [email protected]
    Format settings, CABAC : Yes
    Format settings, ReFrames : 5 frames
    Codec ID : V_MPEG4/ISO/AVC
    Duration : 2h 15mn
    Bit rate : 8 865 Kbps
    Width : 1 920 pixels
    Height : 808 pixels
    Display aspect ratio : 2.40:1
    Frame rate mode : Constant
    Frame rate : 23.976 fps
    Color space : YUV
    Chroma subsampling : 4:2:0
    Bit depth : 8 bits
    Scan type : Progressive
    Bits/(Pixel*Frame) : 0.238
    Stream size : 8.41 GiB (85%)
    Writing library : x264 core 150 r2833 df79067

    Audio
    ID : 2
    Format : DTS
    Format/Info : Digital Theater Systems
    Mode : 16
    Format settings, Endianness : Big
    Codec ID : A_DTS
    Duration : 2h 15mn
    Bit rate mode : Constant
    Bit rate : 1 509 Kbps
    Channel(s) : 6 channels
    Channel positions : Front: L C R, Side: L R, LFE
    Sampling rate : 48.0 KHz
    Frame rate : 93.750 fps (512 spf)
    Bit depth : 24 bits
    Compression mode : Lossy
    Stream size : 1.43 GiB (15%)
    Language : English
    CBox BBCode:
    [B] [color=crimson] [Büyük][[/Büyük] Forum Konusu [Büyük]][/Büyük] [/color] [CENTER] ;brtfixlogo [br] [Büyük] [color=#000000] 👉 [/color] [url=http://brtfix.com/filmler/turkce-alt-yazi-filmler/3424-guardians-of-the-galaxy-vol.-2-2017-turkce-altyazi-brrip-720p-1080p.html] [yeşil] [color=#FFFF00] Guardians of the Galaxy Vol. 2 2017 Türkçe Altyazı BRRip 720p 1080p [/color] [/yeşil] [/url] [color=#000000] 👈 [/color] [/Büyük] [/B] [/CENTER]
    Destek İçin Yorum Yapmayı Unutmayın :)

    Yapılan Yorumlar Yönetici Tarafından Onaylandıkdan Sonra Gözükür...

    BilgiYorum Ekleyebilmeniz için Sitemize Kayıt Olmanız Gerekmektedir.