Please enable / Bitte aktiviere JavaScript!
Veuillez activer / Por favor activa el Javascript!>[ BURAYA TIKLAYIN ]
» » » Son Macera - Going In Style 2017 Türkçe Altyazı BRRip 720p 1080p REMUX indir

Paylaş Son Macera - Going In Style 2017 Türkçe Altyazı BRRip 720p 1080p REMUX indir

Filmin Adı:
Son Macera - Going In Style 2017 Türkçe Altyazı BRRip 720p 1080p REMUX indir
Beğeni:

Oy kullanan 0 Kişi

Vizyon Tarihi:
7 Nisan 2017 (İngiltere)
Yılı - Ülke:
ABD
Film Türü:
Komedi, Suç
Yönetmen:
Zach Braff
Film Süresi:
1s 36Dakika
IMDB PUANI:
Konusu:
Morgan Freeman, (Willie), Michael Caine (Joe) ve Alan Arkin (Al ), faturaları ödemekte zorlanan ve sevdiklerinin iyiliği için bu ömürlük arkadaşlar emekli maaşlarının bir banka tarafından sahiplenilmesi sonucu emekli olmayı bırakıp hayatlarında bir adım önde çıkmaya karar verip, tüm riskleri alıp paralarına el koyan bankayı soymaya karar vermelerini anlatıyor.
Ekleyen:
Medicus
BrtFix Özel Üyelik
Son Macera - Going In Style 2017 Türkçe Altyazı BRRip 720p 1080p REMUX indir


Son Macera - Going In Style 2017 Türkçe Altyazı BRRip 720p 1080p REMUX indir


BrtFix
  • Filmin Adı : Son Macera - Going In Style 2017
  • Format : BRRip
  • Boyut: 1.4 GB
  • Rip : BFxRG
  • BrtFix
  • Filmin Adı : Son Macera - Going In Style 2017
  • Format : 720p
  • Boyut: 4.4 GB
  • Rip : BFxRG
  • BrtFix
  • Filmin Adı : Son Macera - Going In Style 2017
  • Format : 1080p
  • Boyut: 7.6 GB
  • Rip : BFxRG
  • BrtFix
  • Filmin Adı : Son Macera - Going In Style 2017
  • Format : REMUX
  • Boyut: 27.4 GB
  • Rip : BFxRG



  • BrtFix Özel Üyelik
    Son Macera - Going In Style 2017 Türkçe Altyazı BRRip 720p 1080p REMUX indir
    Video
    ID : 1
    Format : AVC
    Format/Info : Advanced Video Codec
    Format profile : [email protected]
    Format settings, CABAC : Yes
    Format settings, ReFrames : 5 frames
    Codec ID : V_MPEG4/ISO/AVC
    Duration : 1h 36mn
    Bit rate : 9 850 Kbps
    Width : 1 920 pixels
    Height : 800 pixels
    Display aspect ratio : 2.40:1
    Frame rate mode : Constant
    Frame rate : 23.976 fps
    Color space : YUV
    Chroma subsampling : 4:2:0
    Bit depth : 8 bits
    Scan type : Progressive
    Bits/(Pixel*Frame) : 0.267
    Stream size : 6.63 GiB (87%)
    Writing library : x264 core 150 r2833 df79067
    Language : English

    Audio
    ID : 2
    Format : DTS
    Format/Info : Digital Theater Systems
    Mode : 16
    Format settings, Endianness : Big
    Codec ID : A_DTS
    Duration : 1h 36mn
    Bit rate mode : Constant
    Bit rate : 1 509 Kbps
    Channel(s) : 6 channels
    Channel positions : Front: L C R, Side: L R, LFE
    Sampling rate : 48.0 KHz
    Frame rate : 93.750 fps (512 spf)
    Bit depth : 24 bits
    Compression mode : Lossy
    Stream size : 1.02 GiB (13%)
    CBox BBCode:
    [B] [color=crimson] [Büyük][[/Büyük] Forum Konusu [Büyük]][/Büyük] [/color] [CENTER] ;brtfixlogo [br] [Büyük] [color=#000000] 👉 [/color] [url=http://brtfix.com/filmler/turkce-alt-yazi-filmler/3479-son-macera-going-in-style-2017-turkce-altyazi-brrip-720p-1080p-remux-indir.html] [yeşil] [color=#FFFF00] Son Macera - Going In Style 2017 Türkçe Altyazı BRRip 720p 1080p REMUX indir [/color] [/yeşil] [/url] [color=#000000] 👈 [/color] [/Büyük] [/B] [/CENTER]
    Destek İçin Yorum Yapmayı Unutmayın :)

    Yapılan Yorumlar Yönetici Tarafından Onaylandıkdan Sonra Gözükür...

    BilgiYorum Ekleyebilmeniz için Sitemize Kayıt Olmanız Gerekmektedir.