» » » Yaratık Covenant - Alien Covenant 2017 Türkçe Altyazı BRRip 720p 1080p REMUX

Paylaş Yaratık Covenant - Alien Covenant 2017 Türkçe Altyazı BRRip 720p 1080p REMUX

Filmin Adı:
Yaratık Covenant - Alien Covenant 2017 Türkçe Altyazı BRRip 720p 1080p REMUX
Vizyon Tarihi:
12 Mayıs 2017 (İngiltere)
Yılı - Ülke:
ABD, İngiltere, Avustralya, Yeni Zelanda, Kanada
Film Türü:
Korku, Bilim Kurgu, Gerilim
Yönetmen:
Ridley Scott
Film Süresi:
2s 2Dakika
IMDB PUANI:
Konusu:
Koloni gemisi Covenant’ın mürettebatı galaksinin oldukça uzak bir köşesinde, keşfedilmemiş cennet olarak varsaydıkları bölgenin aslında karanlık ve çok tehlikeli bir yer olduğunu anlarlar. Gezegendeki yegane canlı lanetli Prometheus'un keşfinden sonra hayatta kalan 'sentetik' David’dir... Efsane biilimkurgu/macera yönetmeni Ridley Scott, Alien’da kendi yarattığı evrene, Prometheus ile başlayan yeni üçlemesinin ikinci filmi olan Alien: Covenant filminde geri dönüyor. Filmde yine Michael Fassbender'ı başrolde seyrederken, Katherine Waterston, Demian Bichir ve Billy Crudup gibi isimler eşlik ediyor.
Ekleyen:
Medicus
BrtFix Özel Üyelik
Yaratık Covenant - Alien Covenant 2017 Türkçe Altyazı BRRip 720p 1080p REMUX

Yaratık Covenant - Alien Covenant 2017 Türkçe Altyazı BRRip 720p 1080p REMUX

BrtFix
  • Filmin Adı : Yaratık Covenant - Alien Covenant 2017
  • Format : BRRip
  • Boyut: 1.8 GB
  • Rip : BFxRG
  • BrtFix
  • Filmin Adı : Yaratık Covenant - Alien Covenant 2017
  • Format : 720p
  • Boyut: 5.5 GB
  • Rip : BFxRG
  • BrtFix
  • Filmin Adı : Yaratık Covenant - Alien Covenant 2017
  • Format : REMUX
  • Boyut: 29 GB
  • Rip : BFxRG



  • BrtFix Özel Üyelik
    Yaratık Covenant - Alien Covenant 2017 Türkçe Altyazı BRRip 720p 1080p REMUX
    Video
    ID : 1
    Format : AVC
    Format/Info : Advanced Video Codec
    Format profile : [email protected]
    Format settings, CABAC : Yes
    Format settings, ReFrames : 5 frames
    Codec ID : V_MPEG4/ISO/AVC
    Duration : 2h 2mn
    Bit rate : 8 742 Kbps
    Width : 1 920 pixels
    Height : 800 pixels
    Display aspect ratio : 2.40:1
    Frame rate mode : Constant
    Frame rate : 23.976 (24000/1001) fps
    Color space : YUV
    Chroma subsampling : 4:2:0
    Bit depth : 8 bits
    Scan type : Progressive
    Bits/(Pixel*Frame) : 0.237
    Stream size : 7.45 GiB (85%)
    Writing library : x264 core 152 r2851 ba24899
    Encoding settings : cabac=1 / ref=5 / deblock=1:-3:-3 / analyse=0x3:0x113 / me=umh / subme=8 / psy=1 / psy_rd=1.00:0.00 / mixed_ref=1 / me_range=16 / chroma_me=1 / trellis=1 / 8x8dct=1 / cqm=0 / deadzone=21,11 / fast_pskip=1 / chroma_qp_offset=-2 / threads=25 / lookahead_threads=4 / sliced_threads=0 / nr=0 / decimate=1 / interlaced=0 / bluray_compat=0 / constrained_intra=0 / bframes=3 / b_pyramid=2 / b_adapt=1 / b_bias=0 / direct=3 / weightb=1 / open_gop=0 / weightp=2 / keyint=240 / keyint_min=24 / scenecut=40 / intra_refresh=0 / rc_lookahead=50 / rc=2pass / mbtree=1 / bitrate=8742 / ratetol=1.0 / qcomp=0.60 / qpmin=0 / qpmax=69 / qpstep=4 / cplxblur=20.0 / qblur=0.5 / ip_ratio=1.40 / aq=1:1.00
    Default : Yes
    Forced : No

    Audio
    ID : 2
    Format : DTS
    Format/Info : Digital Theater Systems
    Format profile : ES Matrix / Core
    Mode : 16
    Format settings, Endianness : Big
    Codec ID : A_DTS
    Duration : 2h 2mn
    Bit rate mode : Constant
    Bit rate : 1 509 Kbps
    Channel(s) : 7 channels / 6 channels
    Channel positions : Front: L C R, Side: L R, Back: C, LFE / Front: L C R, Side: L R, LFE
    Sampling rate : 48.0 KHz
    Frame rate : 93.750 fps (512 spf)
    Bit depth : 24 bits
    Compression mode : Lossy
    Stream size : 1.29 GiB (15%)
    Language : English
    Default : Yes
    Forced : No
    CBox BBCode:
    [B] [color=crimson] [Büyük][[/Büyük] Forum Konusu [Büyük]][/Büyük] [/color] [CENTER] ;brtfixlogo [br] [Büyük] [color=#000000] 👉 [/color] [url=http://brtfix.com/filmler/turkce-alt-yazi-filmler/3632-yaratik-covenant-alien-covenant-2017-turkce-altyazi-brrip-720p-1080p-remux.html] [yeşil] [color=#FFFF00] Yaratık Covenant - Alien Covenant 2017 Türkçe Altyazı BRRip 720p 1080p REMUX [/color] [/yeşil] [/url] [color=#000000] 👈 [/color] [/Büyük] [/B] [/CENTER]
    Destek İçin Yorum Yapmayı Unutmayın :)

    Yapılan Yorumlar Yönetici Tarafından Onaylandıkdan Sonra Gözükür...

    BilgiYorum Ekleyebilmeniz için Sitemize Kayıt Olmanız Gerekmektedir.