Please enable / Bitte aktiviere JavaScript!
Veuillez activer / Por favor activa el Javascript!>[ BURAYA TIKLAYIN ]
» » » Ateş Serbest - Free Fire 2016 Türkçe Altyazı BRRip 720p 1080p REMUX İndir

Paylaş Ateş Serbest - Free Fire 2016 Türkçe Altyazı BRRip 720p 1080p REMUX İndir

Filmin Adı:
Ateş Serbest - Free Fire 2016 Türkçe Altyazı BRRip 720p 1080p REMUX İndir
Beğeni:

Oy kullanan 2 Kişi

Vizyon Tarihi:
31 Mart 2017 (İngiltere)
Yılı - Ülke:
İngiltere, Fransa
Film Türü:
Aksiyon, Komedi, Suç
Yönetmen:
Ben Wheatley
Film Süresi:
1s 30Dakika
IMDB PUANI:
Konusu:
Boston, 1978... İki çete, terk edilmiş bir depoda buluşur. Planlanan yasadışı silah alışverişi yanlış anlamalar, beklenmedik tesadüfler ve güvensizlik sonucu çatışmaya dönüşür. Herkes bir yandan hayatta kalmak için mücadele ederken, diğer yandan da etrafındakilerin gerçekte hangi tarafta olduğunu çözmeye çalışmaktadır. Neredeyse gerçek zamanlı ve büyük kısmı tek bir mekânda geçen bu hınzır aksiyon filmi, kadrosundaki yıldız oyuncularla da dikkat çekiyor.
Ekleyen:
Medicus
BrtFix Özel Üyelik
Ateş Serbest - Free Fire 2016 Türkçe Altyazı BRRip 720p 1080p REMUX İndir



Ateş Serbest - Free Fire 2016 Türkçe Altyazı BRRip 720p 1080p REMUX İndir

BrtFix
  • Filmin Adı : Ateş Serbest - Free Fire 2016
  • Format : BRRip
  • Boyut: 1.2 GB
  • Rip : BFxRG
  • BrtFix
  • Filmin Adı : Ateş Serbest - Free Fire 2016
  • Format : 720p
  • Boyut: 4.4 GB
  • Rip : BFxRG
  • BrtFix
  • Filmin Adı : Ateş Serbest - Free Fire 2016
  • Format : 1080p
  • Boyut: 6.6 GB
  • Rip : BFxRG
  • BrtFix
  • Filmin Adı : Ateş Serbest - Free Fire 2016
  • Format : REMUX
  • Boyut: 17.9 GB
  • Rip : BFxRG



  • BrtFix Özel Üyelik
    Ateş Serbest - Free Fire 2016 Türkçe Altyazı BRRip 720p 1080p REMUX İndir
    Video
    ID : 1
    Format : AVC
    Format/Info : Advanced Video Codec
    Format profile : [email protected]
    Format settings, CABAC : Yes
    Format settings, ReFrames : 5 frames
    Codec ID : V_MPEG4/ISO/AVC
    Duration : 1h 30mn
    Bit rate : 8 853 Kbps
    Width : 1 920 pixels
    Height : 808 pixels
    Display aspect ratio : 2.40:1
    Frame rate mode : Constant
    Frame rate : 23.976 (24000/1001) fps
    Color space : YUV
    Chroma subsampling : 4:2:0
    Bit depth : 8 bits
    Scan type : Progressive
    Bits/(Pixel*Frame) : 0.238
    Stream size : 5.60 GiB (85%)
    Writing library : x264 core 150 r2833 df79067
    Language : English


    Audio
    ID : 2
    Format : DTS
    Format/Info : Digital Theater Systems
    Mode : 16
    Format settings, Endianness : Big
    Codec ID : A_DTS
    Duration : 1h 30mn
    Bit rate mode : Constant
    Bit rate : 1 509 Kbps
    Channel(s) : 6 channels
    Channel positions : Front: L C R, Side: L R, LFE
    Sampling rate : 48.0 KHz
    Frame rate : 93.750 fps (512 spf)
    Bit depth : 24 bits
    Compression mode : Lossy
    Stream size : 978 MiB (15%)
    CBox BBCode:
    [B] [color=crimson] [Büyük][[/Büyük] Forum Konusu [Büyük]][/Büyük] [/color] [CENTER] ;brtfixlogo [br] [Büyük] [color=#000000] 👉 [/color] [url=http://brtfix.com/filmler/turkce-alt-yazi-filmler/3670-ates-serbest-free-fire-2016-turkce-altyazi-brrip-720p-1080p-remux-indir.html] [yeşil] [color=#FFFF00] Ateş Serbest - Free Fire 2016 Türkçe Altyazı BRRip 720p 1080p REMUX İndir [/color] [/yeşil] [/url] [color=#000000] 👈 [/color] [/Büyük] [/B] [/CENTER]
    Destek İçin Yorum Yapmayı Unutmayın :)

    Yapılan Yorumlar Yönetici Tarafından Onaylandıkdan Sonra Gözükür...

    BilgiYorum Ekleyebilmeniz için Sitemize Kayıt Olmanız Gerekmektedir.