» » » Mumya - The Mummy 2017 Türkçe Altyazı WEB-DL 720p 1080p

Paylaş Mumya - The Mummy 2017 Türkçe Altyazı WEB-DL 720p 1080p

Filmin Adı:
Mumya - The Mummy 2017 Türkçe Altyazı WEB-DL 720p 1080p
Vizyon Tarihi:
9 Haziran 2017 (İngiltere)
Yılı - Ülke:
ABD
Film Türü:
Aksiyon, Macera, Fantezi
Yönetmen:
Alex Kurtzman
Film Süresi:
1s 50Dakika
IMDB PUANI:
Konusu:
Başrollerinde Tom Cruise ve Russell Crowe’un oynamış olduğu Mumya 2017 izle adlı filmin, yönetmenliğini Amerikalı deneyimli sinemacı Alex Kurtzman üstlenmiştir. Senaryosu Jon Spaihts tarafından kaleme alınan The Mummy, Irak topraklarında bir grup teröristi bulmak için birçok sıradışı durumla karşı karşıya kalan Tyler Colt ve ekip arkadaşlarının yaşadıklarını konu edinmektedir.
Ekleyen:
Medicus
BrtFix Özel Üyelik
Mumya - The Mummy 2017 Türkçe Altyazı WEB-DL 720p 1080p

Mumya - The Mummy 2017 Türkçe Altyazı WEB-DL 720p 1080p

BrtFix
  • Filmin Adı : Mumya - The Mummy 2017
  • Format : WEB-DL
  • Boyut: 1.5 GB
  • Rip : BFxRG
  • BrtFix
  • Filmin Adı : Mumya - The Mummy 2017
  • Format : 720p
  • Boyut: 4.8 GB
  • Rip : BFxRG
  • BrtFix
  • Filmin Adı : Mumya - The Mummy 2017
  • Format : 1080p
  • Boyut: 9.3 GB
  • Rip : BFxRG



  • BrtFix Özel Üyelik
    Mumya - The Mummy 2017 Türkçe Altyazı WEB-DL 720p 1080p
    Video
    ID : 1
    Format : AVC
    Format/Info : Advanced Video Codec
    Format profile : [email protected]
    Format settings, CABAC : Yes
    Format settings, ReFrames : 5 frames
    Codec ID : V_MPEG4/ISO/AVC
    Duration : 1 h 50 min
    Bit rate : 4 533 kb/s
    Width : 1 916 pixels
    Height : 792 pixels
    Display aspect ratio : 2.40:1
    Frame rate mode : Constant
    Frame rate : 23.976 FPS
    Color space : YUV
    Chroma subsampling : 4:2:0
    Bit depth : 8 bits
    Scan type : Progressive
    Bits/(Pixel*Frame) : 0.125
    Stream size : 3.49 GiB (90%)
    Title : The.Mummy.2017.1080p.WEB-DL.DD5.1.H264-FGT

    Audio
    ID : 2
    Format : AC-3
    Format/Info : Audio Coding 3
    Format settings, Endianness : Big
    Codec ID : A_AC3
    Duration : 1 h 50 min
    Bit rate mode : Constant
    Bit rate : 384 kb/s
    Channel(s) : 6 channels
    Channel positions : Front: L C R, Side: L R, LFE
    Sampling rate : 48.0 kHz
    Frame rate : 31.250 FPS (1536 spf)
    Bit depth : 16 bits
    Compression mode : Lossy
    Stream size : 302 MiB (8%)
    Title : The.Mummy.2017.1080p.WEB-DL.DD5.1.H264-FGT
    Language : English
    CBox BBCode:
    [B] [color=crimson] [Büyük][[/Büyük] Forum Konusu [Büyük]][/Büyük] [/color] [CENTER] ;brtfixlogo [br] [Büyük] [color=#000000] 👉 [/color] [url=http://brtfix.com/filmler/turkce-alt-yazi-filmler/3751-mumya-the-mummy-2017-turkce-altyazi-web-dl-720p-1080p.html] [yeşil] [color=#FFFF00] Mumya - The Mummy 2017 Türkçe Altyazı WEB-DL 720p 1080p [/color] [/yeşil] [/url] [color=#000000] 👈 [/color] [/Büyük] [/B] [/CENTER]
    Destek İçin Yorum Yapmayı Unutmayın :)

    Yapılan Yorumlar Yönetici Tarafından Onaylandıkdan Sonra Gözükür...

    BilgiYorum Ekleyebilmeniz için Sitemize Kayıt Olmanız Gerekmektedir.