Please enable / Bitte aktiviere JavaScript!
Veuillez activer / Por favor activa el Javascript!>[ BURAYA TIKLAYIN ]
» » » Bonded by Blood 2 2017 Türkçe Altyazı BRRip 720p 1080p REMUX

Paylaş Bonded by Blood 2 2017 Türkçe Altyazı BRRip 720p 1080p REMUX

Filmin Adı:
Bonded by Blood 2 2017 Türkçe Altyazı BRRip 720p 1080p REMUX
Beğeni:

Oy kullanan 0 Kişi

Vizyon Tarihi:
22 Mayıs 2017 (İngiltere)
Yılı - Ülke:
İngiltere
Film Türü:
Suç
Yönetmen:
Greg Hall
Film Süresi:
1s 31Dakika
IMDB PUANI:
Konusu:
Enfes bir Essex Boys Range Rover cinayetinin ardından, güç boşluğunu doldurmak için daha genç, daha parlayan bir suçlu ortaya çıkıyor.
Ekleyen:
Medicus
BrtFix Özel Üyelik
Bonded by Blood 2 2017 Türkçe Altyazı BRRip 720p 1080p REMUX



Bonded by Blood 2 2017 Türkçe Altyazı BRRip 720p 1080p REMUX

BrtFix
  • Filmin Adı : Bonded by Blood 2 2017
  • Format : BRRip
  • Boyut: 938 MB
  • Rip : BFxRG
  • BrtFix
  • Filmin Adı : Bonded by Blood 2 2017
  • Format : 720p
  • Boyut: 0.0 GB
  • Rip : BFxRG
  • BrtFix
  • Filmin Adı : Bonded by Blood 2 2017
  • Format : 1080p
  • Boyut: 6.6 GB
  • Rip : BFxRG
  • BrtFix
  • Filmin Adı : Bonded by Blood 2 2017
  • Format : REMUX
  • Boyut: 20.7 GB
  • Rip : BFxRG



  • BrtFix Özel Üyelik
    Bonded by Blood 2 2017 Türkçe Altyazı BRRip 720p 1080p REMUX
    Video
    ID : 1
    Format : AVC
    Format/Info : Advanced Video Codec
    Format profile : [email protected]
    Format settings, CABAC : Yes
    Format settings, ReFrames : 5 frames
    Codec ID : V_MPEG4/ISO/AVC
    Duration : 1h 32mn
    Bit rate : 9 426 Kbps
    Width : 1 920 pixels
    Height : 808 pixels
    Display aspect ratio : 2.40:1
    Frame rate mode : Constant
    Frame rate : 23.976 (24000/1001) fps
    Color space : YUV
    Chroma subsampling : 4:2:0
    Bit depth : 8 bits
    Scan type : Progressive
    Bits/(Pixel*Frame) : 0.253
    Stream size : 5.93 GiB (90%)
    Writing library : x264 core 150 r2829 d1fe6fd

    Audio
    ID : 2
    Format : DTS
    Format/Info : Digital Theater Systems
    Mode : 16
    Format settings, Endianness : Big
    Codec ID : A_DTS
    Duration : 1h 32mn
    Bit rate mode : Constant
    Bit rate : 768 Kbps
    Channel(s) : 6 channels
    Channel positions : Front: L C R, Side: L R, LFE
    Sampling rate : 48.0 KHz
    Frame rate : 93.750 fps (512 spf)
    Bit depth : 24 bits
    Compression mode : Lossy
    Stream size : 506 MiB (8%)
    CBox BBCode:
    [B] [color=crimson] [Büyük][[/Büyük] Forum Konusu [Büyük]][/Büyük] [/color] [CENTER] ;brtfixlogo [br] [Büyük] [color=#000000] 👉 [/color] [url=http://brtfix.com/filmler/turkce-alt-yazi-filmler/3754-bonded-by-blood-2-2017-turkce-altyazi-brrip-720p-1080p-remux.html] [yeşil] [color=#FFFF00] Bonded by Blood 2 2017 Türkçe Altyazı BRRip 720p 1080p REMUX [/color] [/yeşil] [/url] [color=#000000] 👈 [/color] [/Büyük] [/B] [/CENTER]
    Destek İçin Yorum Yapmayı Unutmayın :)

    Yapılan Yorumlar Yönetici Tarafından Onaylandıkdan Sonra Gözükür...

    BilgiYorum Ekleyebilmeniz için Sitemize Kayıt Olmanız Gerekmektedir.