Please enable / Bitte aktiviere JavaScript!
Veuillez activer / Por favor activa el Javascript!>[ BURAYA TIKLAYIN ]
» » » Transformers 5 Son Şövalye - Transformers The Last Knight 2017 Türkçe Altyazı BRRip 720p 1080p

Paylaş Transformers 5 Son Şövalye - Transformers The Last Knight 2017 Türkçe Altyazı BRRip 720p 1080p

Filmin Adı:
Transformers 5 Son Şövalye - Transformers The Last Knight 2017 Türkçe Altyazı BRRip 720p 1080p
Beğeni:

Oy kullanan 11 Kişi

Vizyon Tarihi:
22 Haziran 2017 (İngiltere)
Yılı - Ülke:
ABD
Film Türü:
Aksiyon, Macera, Bilim Kurgu
Yönetmen:
Michael Bay
Film Süresi:
2s 29Dakika
IMDB PUANI:
Konusu:
Yönetmenliğini Michael Bay‘in üstlendiği beşinci filmde insanların, Transformerlara karşı verdiği mücadele şiddet kazanıyor. Son dönemde her şey ters giderken bir de Optimus Prime ortadan kaybolur. Uzunca bir süre kayıplara karışan Optimus Prime’ın taraf değiştirdiği ortaya çıkar. Öte yandan insanoğlu bu büyük savaştan sağ çıkabilmek için geçmişe odaklanmak zorunda kalır. Beklenmedik ortaklıklar kuran Cade Yeager sır gibi saklanan detayları keşfetmeye başlar. Böylece Transformerların neden dünyaya gelip durduğunu anlamaya çabalar. Onların sandığımızdan çok daha uzun zamandır insanlık tarihinin bir parçası olduğu anlaşılır. Geleceği kurtarmanın anahtarı geçmişin sırlarında ve Transformerların dünyadaki gizli geçmişinde yatıyor. Dünyamızı kurtarmak Cade Yeager (Mark Wahlberg); Bumblebee; bir İngiliz lordu (Sör Anthony Hopkins) ve bir Oxford profesöründen (Laura Haddock) oluşan beklenmedik bir ekibe düşüyor.
Ekleyen:
Medicus
BrtFix Özel Üyelik
Transformers 5 Son Şövalye - Transformers The Last Knight 2017 Türkçe Altyazı BRRip 720p 1080p


Transformers 5 Son Şövalye - Transformers The Last Knight 2017 Türkçe Altyazı BRRip 720p 1080p

BrtFix
  • Filmin Adı : Transformers 5 Son Şövalye - Transformers The Last Knight 2017
  • Format : BRRip
  • Boyut: 2.2 GB
  • Rip : BFxRG
  • BrtFix
  • Filmin Adı : Transformers 5 Son Şövalye - Transformers The Last Knight 2017
  • Format : 720p
  • Boyut: 8 GB
  • Rip : BFxRG
  • BrtFix
  • Filmin Adı : Transformers 5 Son Şövalye - Transformers The Last Knight 2017
  • Format : 1080p
  • Boyut: 14.2
  • Rip : BFxRG



  • BrtFix Özel Üyelik
    Transformers 5 Son Şövalye - Transformers The Last Knight 2017 Türkçe Altyazı BRRip 720p 1080p
    Video
    ID : 1
    Format : AVC
    Format/Info : Advanced Video Codec
    Format profile : [email protected]
    Format settings, CABAC : Yes
    Format settings, ReFrames : 4 frames
    Codec ID : avc1
    Codec ID/Info : Advanced Video Coding
    Duration : 2 h 26 min
    Bit rate : 4 500 kb/s
    Width : 1 920 pixels
    Height : 1 000 pixels
    Display aspect ratio : 1.920
    Frame rate mode : Constant
    Frame rate : 24.000 FPS
    Color space : YUV
    Chroma subsampling : 4:2:0
    Bit depth : 8 bits
    Scan type : Progressive
    Bits/(Pixel*Frame) : 0.098
    Stream size : 4.59 GiB (95%)
    Title : Transformers.The.Last.Knight.2017.1080p.KORSUB.HDRip.x264.AAC2.0-STUTTERSHIT
    Writing library : x264 core 152 r2851M ba24899
    Encoding settings : cabac=1 / ref=4 / deblock=1:0:0 / analyse=0x3:0x113 / me=hex / subme=8 / psy=1 / psy_rd=1.00:0.00 / mixed_ref=1 / me_range=16 / chroma_me=1 / trellis=2 / 8x8dct=1 / cqm=0 / deadzone=21,11 / fast_pskip=1 / chroma_qp_offset=-2 / threads=40 / lookahead_threads=6 / sliced_threads=0 / nr=0 / decimate=1 / interlaced=0 / bluray_compat=0 / constrained_intra=0 / bframes=3 / b_pyramid=2 / b_adapt=1 / b_bias=0 / direct=3 / weightb=1 / open_gop=0 / weightp=2 / keyint=250 / keyint_min=24 / scenecut=40 / intra_refresh=0 / rc_lookahead=50 / rc=abr / mbtree=1 / bitrate=4500 / ratetol=1.0 / qcomp=0.60 / qpmin=0 / qpmax=69 / qpstep=4 / ip_ratio=1.40 / aq=1:1.00

    Audio
    ID : 2
    Format : AAC
    Format/Info : Advanced Audio Codec
    Format profile : LC
    Codec ID : 40
    Duration : 2 h 26 min
    Bit rate mode : Constant
    Bit rate : 224 kb/s
    Channel(s) : 2 channels
    Channel positions : Front: L R
    Sampling rate : 44.1 kHz
    Frame rate : 43.066 FPS (1024 spf)
    Compression mode : Lossy
    Stream size : 235 MiB (5%)
    Title : Transformers.The.Last.Knight.2017.1080p.KORSUB.HDRip.x264.AAC2.0-STUTTERSHIT
    Default : Yes
    Alternate group : 1
    CBox BBCode:
    [B] [color=crimson] [Büyük][[/Büyük] Forum Konusu [Büyük]][/Büyük] [/color] [CENTER] ;brtfixlogo [br] [Büyük] [color=#000000] 👉 [/color] [url=http://brtfix.com/filmler/turkce-alt-yazi-filmler/3840-transformers-5-son-sovalye-transformers-the-last-knight-2017-turkce-altyazi-brrip-720p-1080p.html] [yeşil] [color=#FFFF00] Transformers 5 Son Şövalye - Transformers The Last Knight 2017 Türkçe Altyazı BRRip 720p 1080p [/color] [/yeşil] [/url] [color=#000000] 👈 [/color] [/Büyük] [/B] [/CENTER]
    Destek İçin Yorum Yapmayı Unutmayın :)

    Yapılan Yorumlar Yönetici Tarafından Onaylandıkdan Sonra Gözükür...

    1. antidot427
      hele şükür kaç aydır beklediğim film geldi türçe dublajda bu hafta içinde gelirmi

      • 7 Eylül 2017 15:08
      1. RedMonster
        1-2 Haftası Var Daha Onun :)
        RedMonster
        • 7 Eylül 2017 15:19
        1. antidot427
          etme eyleme :D
          • 8 Eylül 2017 14:45
    BilgiYorum Ekleyebilmeniz için Sitemize Kayıt Olmanız Gerekmektedir.