Please enable / Bitte aktiviere JavaScript!
Veuillez activer / Por favor activa el Javascript!>[ BURAYA TIKLAYIN ]
» » » Hayat - Life 2017 Türkçe Altyazı BRRip 720p 1080p REMUX

Paylaş Hayat - Life 2017 Türkçe Altyazı BRRip 720p 1080p REMUX

Filmin Adı:
Hayat - Life 2017 Türkçe Altyazı BRRip 720p 1080p REMUX
Beğeni:

Oy kullanan 0 Kişi

Vizyon Tarihi:
24 Mart 2017 (İngiltere)
Yılı - Ülke:
ABD
Film Türü:
Korku, Bilim Kurgu, Gerilim
Yönetmen:
Daniel Espinosa
Film Süresi:
1s 44Dakika
IMDB PUANI:
Konusu:
“Hayat/Life”, uluslararası bir uzay istasyonunda görevli altı kişinin, insanlık tarihinde çığır açacak bir keşfin eşiğindeki hikayesini anlatıyor; bu ekip Mars gezegeninde ilk kez hayat olduğuna dair ip uçları bulur. Ekip araştırmalarını ilerlettikçe, metodları beklenmedik sonuçlar verir, çünkü buldukları bu hayat formu kimsenin bekleyemeyeceği kadar zekidir.
Ekleyen:
Medicus
BrtFix Özel Üyelik
Hayat - Life 2017 Türkçe Altyazı BRRip 720p 1080p REMUX


Hayat - Life 2017 Türkçe Altyazı BRRip 720p 1080p REMUX

BrtFix
  • Filmin Adı : Hayat - Life 2017
  • Format : BRRip
  • Boyut: 1.2 GB
  • Rip : BFxRG
  • BrtFix
  • Filmin Adı : Hayat - Life 2017
  • Format : 720p
  • Boyut: 4.4 GB
  • Rip : BFxRG
  • BrtFix
  • Filmin Adı : Hayat - Life 2017
  • Format : 1080p
  • Boyut: 7.7
  • Rip : BFxRG
  • BrtFix
  • Filmin Adı : Hayat - Life 2017
  • Format : REMUX
  • Boyut: 28.3 GB
  • Rip : BFxRG



  • BrtFix Özel Üyelik
    Hayat - Life 2017 Türkçe Altyazı BRRip 720p 1080p REMUX
    Video
    ID : 1
    Format : AVC
    Format/Info : Advanced Video Codec
    Format profile : [email protected]
    Format settings, CABAC : Yes
    Format settings, ReFrames : 5 frames
    Codec ID : V_MPEG4/ISO/AVC
    Duration : 1h 43mn
    Bit rate : 9 020 Kbps
    Width : 1 920 pixels
    Height : 808 pixels
    Display aspect ratio : 2.40:1
    Frame rate mode : Constant
    Frame rate : 23.976 (24000/1001) fps
    Color space : YUV
    Chroma subsampling : 4:2:0
    Bit depth : 8 bits
    Scan type : Progressive
    Bits/(Pixel*Frame) : 0.243
    Stream size : 6.40 GiB (84%)
    Writing library : x264 core 150 r2833 df79067
    Language : English

    Audio
    ID : 2
    Format : DTS
    Format/Info : Digital Theater Systems
    Mode : 16
    Format settings, Endianness : Big
    Codec ID : A_DTS
    Duration : 1h 43mn
    Bit rate mode : Constant
    Bit rate : 1 509 Kbps
    Channel(s) : 6 channels
    Channel positions : Front: L C R, Side: L R, LFE
    Sampling rate : 48.0 KHz
    Frame rate : 93.750 fps (512 spf)
    Bit depth : 24 bits
    Compression mode : Lossy
    Stream size : 1.10 GiB (14%)
    CBox BBCode:
    [B] [color=crimson] [Büyük][[/Büyük] Forum Konusu [Büyük]][/Büyük] [/color] [CENTER] ;brtfixlogo [br] [Büyük] [color=#000000] 👉 [/color] [url=http://brtfix.com/filmler/turkce-alt-yazi-filmler/3852-hayat-life-2017-turkce-altyazi-brrip-720p-1080p-remux.html] [yeşil] [color=#FFFF00] Hayat - Life 2017 Türkçe Altyazı BRRip 720p 1080p REMUX [/color] [/yeşil] [/url] [color=#000000] 👈 [/color] [/Büyük] [/B] [/CENTER]
    Destek İçin Yorum Yapmayı Unutmayın :)

    Yapılan Yorumlar Yönetici Tarafından Onaylandıkdan Sonra Gözükür...

    BilgiYorum Ekleyebilmeniz için Sitemize Kayıt Olmanız Gerekmektedir.