Please enable / Bitte aktiviere JavaScript!
Veuillez activer / Por favor activa el Javascript!>[ BURAYA TIKLAYIN ]
» » » Maymunlar Cehennemi Savaş - War for the Planet of the Apes 2017 Türkçe Altyazı BRRip 720p 1080p

Paylaş Maymunlar Cehennemi Savaş - War for the Planet of the Apes 2017 Türkçe Altyazı BRRip 720p 1080p

Filmin Adı:
Maymunlar Cehennemi Savaş - War for the Planet of the Apes 2017 Türkçe Altyazı BRRip 720p 1080p
Beğeni:

Oy kullanan 15 Kişi

Vizyon Tarihi:
11 Temmuz 2017 (İngiltere)
Yılı - Ülke:
ABD
Film Türü:
Aksiyon, Macera, Dram
Yönetmen:
Matt Reeves
Film Süresi:
2s 20Dakika
IMDB PUANI:
Konusu:
Maymunlar Cehennemi üçlemesinin son perdesine hazır olun... 2011 yılında Maymunlar Cehennemi: Başlangıç ile yolculuğuna başlayan Sezar'ı 2014 yılındaki Maymunlar Cehennemi: Şafak Vakti'nde kurduğu maymun ordusu ile insanlara karşı mücadele verirken görmüştük. İkinci filmin de yönetmeni olan Matt Reeves imzalı son film Maymunlar Cehennemi: Savaş'ta ise Sezar ve ordusunun, insanlara karşı olan amansız mücadelesinin etkileri ile karşılaşıyoruz. Her iki ırk da birbirini tehdit olarak görmeye devam ederken, mücadelenin şiddeti de artmış ve kayıplar had safhaya ulaşmıştır. Artık iki ırkın varlığı, önlerindeki bu son savaşa bağlıdır. Maymunların lideri Sezar ile insanların lideri Albay arasındaki bu son mücadele iki ırkın kaderini belirleyecektir.
Ekleyen:
Medicus
BrtFix Özel Üyelik
Maymunlar Cehennemi Savaş - War for the Planet of the Apes 2017 Türkçe Altyazı BRRip 720p 1080p

Maymunlar Cehennemi Savaş - War for the Planet of the Apes 2017 Türkçe Altyazı BRRip 720p 1080p


BrtFix
  • Filmin Adı : Maymunlar Cehennemi Savaş - War for the Planet of the Apes 2017
  • Format : BRRip
  • Boyut: 2.1 GB
  • Rip : BFxRG
  • BrtFix
  • Filmin Adı : Maymunlar Cehennemi Savaş - War for the Planet of the Apes 2017
  • Format : 720p
  • Boyut: 6.6 GB
  • Rip : BFxRG
  • BrtFix
  • Filmin Adı : Maymunlar Cehennemi Savaş - War for the Planet of the Apes 2017
  • Format : 1080p
  • Boyut: 11 GB
  • Rip : BFxRG



  • BrtFix Özel Üyelik
    Maymunlar Cehennemi Savaş - War for the Planet of the Apes 2017 Türkçe Altyazı BRRip 720p 1080p
    Video
    ID : 1
    Format : AVC
    Format/Info : Advanced Video Codec
    Format profile : [email protected]
    Format settings, CABAC : Yes
    Format settings, ReFrames : 5 frames
    Codec ID : V_MPEG4/ISO/AVC
    Duration : 2h 20mn
    Bit rate : 9 647 Kbps
    Width : 1 920 pixels
    Height : 800 pixels
    Display aspect ratio : 2.40:1
    Frame rate mode : Constant
    Frame rate : 23.976 (24000/1001) fps
    Color space : YUV
    Chroma subsampling : 4:2:0
    Bit depth : 8 bits
    Scan type : Progressive
    Bits/(Pixel*Frame) : 0.262
    Stream size : 9.23 GiB (84%)
    Writing library : x264 core 152 r2851 ba24899
    Language : English

    Audio
    ID : 2
    Format : DTS
    Format/Info : Digital Theater Systems
    Format profile : ES Matrix / Core
    Mode : 16
    Format settings, Endianness : Big
    Codec ID : A_DTS
    Duration : 2h 20mn
    Bit rate mode : Constant
    Bit rate : 1 509 Kbps
    Channel(s) : 7 channels / 6 channels
    Channel positions : Front: L C R, Side: L R, Back: C, LFE / Front: L C R, Side: L R, LFE
    Sampling rate : 48.0 KHz
    Frame rate : 93.750 fps (512 spf)
    Bit depth : 24 bits
    Compression mode : Lossy
    Stream size : 1.48 GiB (14%)
    CBox BBCode:
    [B] [color=crimson] [Büyük][[/Büyük] Forum Konusu [Büyük]][/Büyük] [/color] [CENTER] ;brtfixlogo [br] [Büyük] [color=#000000] 👉 [/color] [url=http://brtfix.com/filmler/turkce-alt-yazi-filmler/3857-maymunlar-cehennemi-savas-war-for-the-planet-of-the-apes-2017-turkce-altyazi-brrip-720p-1080p.html] [yeşil] [color=#FFFF00] Maymunlar Cehennemi Savaş - War for the Planet of the Apes 2017 Türkçe Altyazı BRRip 720p 1080p [/color] [/yeşil] [/url] [color=#000000] 👈 [/color] [/Büyük] [/B] [/CENTER]
    Destek İçin Yorum Yapmayı Unutmayın :)

    Yapılan Yorumlar Yönetici Tarafından Onaylandıkdan Sonra Gözükür...

    1. antidot427
      TR. Dublaj ne zaman gelir.
      • 13 Ekim 2017 20:05
      1. RedMonster
        Ay Sonuna Doğru Cıkar
        RedMonster
        • 13 Ekim 2017 20:07
    BilgiYorum Ekleyebilmeniz için Sitemize Kayıt Olmanız Gerekmektedir.