Please enable / Bitte aktiviere JavaScript!
Veuillez activer / Por favor activa el Javascript!>[ BURAYA TIKLAYIN ]
» » » Pilgrimage 2017 Türkçe Altyazı BRRip 720p 1080p REMUX

Paylaş Pilgrimage 2017 Türkçe Altyazı BRRip 720p 1080p REMUX

Filmin Adı:
Pilgrimage 2017 Türkçe Altyazı BRRip 720p 1080p REMUX
Beğeni:

Oy kullanan 0 Kişi

Vizyon Tarihi:
2 Ağustos 2017 (Belçika)
Yılı - Ülke:
Ireland
Film Türü:
Macera, Dram
Yönetmen:
Brendan Muldowney
Film Süresi:
1s 36Dakika
IMDB PUANI:
Konusu:
1209 yılı, İrlanda... Dünyanın kenarında bir ada... Rahiplerden oluşan küçük bir grup, yüzyıllar boyunca süren kabile savaşları ve Normandiyalıların yükselen gücü arasında bölünmüş bir adada isteksiz bir hac yolculuğuna başlar... Manastırlarının kutsal emanetine, Roma’ya doğru eşlik ederlerken, rahiplerin ilerleyişi genç ve tecrübesiz bir rahip ile, geçmişi şiddet dolu, gönüllü dilsiz bir rahibin gözünden anlatılır... Mücevherlerle dolu kutsal emanetin politik ve dinî değeri tehlikeli bir biçimde görünür olmaya başlayınca, doğu kıyısına yaptıkları yolculuk giderek tehlikeli olmaya başlar ve endişe verici bir hâl alır. Rahipler, eski ve hurafelerle dolu bu topraklarda, onları bir arada tutan inancın, sonuçta onların yok olmasına yol açabileceğinin farkına çok geç varırlar...
Ekleyen:
Medicus
BrtFix Özel Üyelik
Pilgrimage 2017 Türkçe Altyazı BRRip 720p 1080p REMUX



Pilgrimage 2017 Türkçe Altyazı BRRip 720p 1080p REMUX

BrtFix
  • Filmin Adı : Pilgrimage 2017
  • Format : BRRip
  • Boyut: 1.3 GB
  • Rip : BFxRG
  • BrtFix
  • Filmin Adı : Pilgrimage 2017
  • Format : 720p
  • Boyut: 4.4 GB
  • Rip : BFxRG
  • BrtFix
  • Filmin Adı : Pilgrimage 2017
  • Format : 1080p
  • Boyut: 6.6 GB
  • Rip : BFxRG
  • BrtFix
  • Filmin Adı : Pilgrimage 2017
  • Format : REMUX
  • Boyut: 26.3 GB
  • Rip : BFxRG



  • BrtFix Özel Üyelik
    Pilgrimage 2017 Türkçe Altyazı BRRip 720p 1080p REMUX
    Video
    ID : 1
    Format : AVC
    Format/Info : Advanced Video Codec
    Format profile : [email protected]
    Format settings, CABAC : Yes
    Format settings, ReFrames : 5 frames
    Codec ID : V_MPEG4/ISO/AVC
    Duration : 1h 36mn
    Bit rate : 9 004 Kbps
    Width : 1 920 pixels
    Height : 808 pixels
    Display aspect ratio : 2.40:1
    Frame rate mode : Constant
    Frame rate : 23.976 (24000/1001) fps
    Color space : YUV
    Chroma subsampling : 4:2:0
    Bit depth : 8 bits
    Scan type : Progressive
    Bits/(Pixel*Frame) : 0.242
    Stream size : 6.04 GiB (92%)
    Writing library : x264 core 150 r2833 df79067
    Language : English

    Audio
    ID : 2
    Format : DTS
    Format/Info : Digital Theater Systems
    Mode : 16
    Format settings, Endianness : Big
    Codec ID : A_DTS
    Duration : 1h 36mn
    Bit rate mode : Constant
    Bit rate : 768 Kbps
    Channel(s) : 6 channels
    Channel positions : Front: L C R, Side: L R, LFE
    Sampling rate : 48.0 KHz
    Frame rate : 93.750 fps (512 spf)
    Bit depth : 24 bits
    Compression mode : Lossy
    Stream size : 528 MiB (8%)

    CBox BBCode:
    [B] [color=crimson] [Büyük][[/Büyük] Forum Konusu [Büyük]][/Büyük] [/color] [CENTER] ;brtfixlogo [br] [Büyük] [color=#000000] 👉 [/color] [url=http://brtfix.com/filmler/turkce-alt-yazi-filmler/3863-pilgrimage-2017-turkce-altyazi-brrip-720p-1080p-remux.html] [yeşil] [color=#FFFF00] Pilgrimage 2017 Türkçe Altyazı BRRip 720p 1080p REMUX [/color] [/yeşil] [/url] [color=#000000] 👈 [/color] [/Büyük] [/B] [/CENTER]
    Destek İçin Yorum Yapmayı Unutmayın :)

    Yapılan Yorumlar Yönetici Tarafından Onaylandıkdan Sonra Gözükür...

    BilgiYorum Ekleyebilmeniz için Sitemize Kayıt Olmanız Gerekmektedir.