Please enable / Bitte aktiviere JavaScript!
Veuillez activer / Por favor activa el Javascript!>[ BURAYA TIKLAYIN ]
» » » The Hatton Garden Job 2017 Türkçe Altyazı BRRip 720p 1080p REMUX indir

Paylaş The Hatton Garden Job 2017 Türkçe Altyazı BRRip 720p 1080p REMUX indir

Filmin Adı:
The Hatton Garden Job 2017 Türkçe Altyazı BRRip 720p 1080p REMUX indir
Beğeni:

Oy kullanan 0 Kişi

Vizyon Tarihi:
14 Nisan 2017 (İngiltere)
Yılı - Ülke:
İngiltere
Film Türü:
Suç
Yönetmen:
Ronnie Thompson
Film Süresi:
1s 33Dakika
IMDB PUANI:
Konusu:
2015 yılında, Londra’nın Hatton Garden adlı bölgesinde, Hatton Garden Safe Deposit adlı şirketin kasası soyulmuştur. Soygunda, 200 milyon sterlin çalınır. İngiltere tarihinin en büyük soygunu haline gelen olay, 4 yaşlı adam tarafından gerçekleşir. Film, bu gerçek olayın hikayesini anlatıyor.
Ekleyen:
Medicus
BrtFix Özel Üyelik
The Hatton Garden Job 2017 Türkçe Altyazı BRRip 720p 1080p REMUX indir



The Hatton Garden Job 2017 Türkçe Altyazı BRRip 720p 1080p REMUX indir

BrtFix
  • Filmin Adı : The Hatton Garden Job 2017
  • Format : BRRip
  • Boyut: 1.3 GB
  • Rip : BFxRG
  • BrtFix
  • Filmin Adı : The Hatton Garden Job 2017
  • Format : 720p
  • Boyut: 4.4 GB
  • Rip : BFxRG
  • BrtFix
  • Filmin Adı : The Hatton Garden Job 2017
  • Format : 1080p
  • Boyut: 6.6 GB
  • Rip : BFxRG
  • BrtFix
  • Filmin Adı : The Hatton Garden Job 2017
  • Format : REMUX
  • Boyut: 18.8 GB
  • Rip : BFxRG



  • BrtFix Özel Üyelik
    The Hatton Garden Job 2017 Türkçe Altyazı BRRip 720p 1080p REMUX indir
    Video
    ID : 1
    Format : AVC
    Format/Info : Advanced Video Codec
    Format profile : [email protected]
    Format settings, CABAC : Yes
    Format settings, ReFrames : 4 frames
    Codec ID : V_MPEG4/ISO/AVC
    Duration : 1h 32mn
    Bit rate : 8 616 Kbps
    Width : 1 920 pixels
    Height : 1 040 pixels
    Display aspect ratio : 1.85:1
    Frame rate mode : Constant
    Frame rate : 23.976 (24000/1001) fps
    Color space : YUV
    Chroma subsampling : 4:2:0
    Bit depth : 8 bits
    Scan type : Progressive
    Bits/(Pixel*Frame) : 0.180
    Stream size : 5.45 GiB (83%)
    Writing library : x264 core 150 r2833 df79067

    Audio
    ID : 2
    Format : DTS
    Format/Info : Digital Theater Systems
    Mode : 16
    Format settings, Endianness : Big
    Codec ID : A_DTS
    Duration : 1h 32mn
    Bit rate mode : Constant
    Bit rate : 1 509 Kbps
    Channel(s) : 6 channels
    Channel positions : Front: L C R, Side: L R, LFE
    Sampling rate : 48.0 KHz
    Frame rate : 93.750 fps (512 spf)
    Bit depth : 24 bits
    Compression mode : Lossy
    Stream size : 1 001 MiB (15%)
    CBox BBCode:
    [B] [color=crimson] [Büyük][[/Büyük] Forum Konusu [Büyük]][/Büyük] [/color] [CENTER] ;brtfixlogo [br] [Büyük] [color=#000000] 👉 [/color] [url=http://brtfix.com/filmler/turkce-alt-yazi-filmler/3866-the-hatton-garden-job-2017-turkce-altyazi-brrip-720p-1080p-remux-indir.html] [yeşil] [color=#FFFF00] The Hatton Garden Job 2017 Türkçe Altyazı BRRip 720p 1080p REMUX indir [/color] [/yeşil] [/url] [color=#000000] 👈 [/color] [/Büyük] [/B] [/CENTER]
    Destek İçin Yorum Yapmayı Unutmayın :)

    Yapılan Yorumlar Yönetici Tarafından Onaylandıkdan Sonra Gözükür...

    BilgiYorum Ekleyebilmeniz için Sitemize Kayıt Olmanız Gerekmektedir.