Please enable / Bitte aktiviere JavaScript!
Veuillez activer / Por favor activa el Javascript!>[ BURAYA TIKLAYIN ]
» » » Örümcek-Adam Eve Dönüş - Spider-Man Homecoming 2017 Türkçe Altyazı BRRip 720p 1080p 3D REMUX

Paylaş Örümcek-Adam Eve Dönüş - Spider-Man Homecoming 2017 Türkçe Altyazı BRRip 720p 1080p 3D REMUX

Filmin Adı:
Örümcek-Adam Eve Dönüş - Spider-Man Homecoming 2017 Türkçe Altyazı BRRip 720p 1080p 3D REMUX
Beğeni:

Oy kullanan 25 Kişi

Vizyon Tarihi:
5 Temmuz 2017 (İngiltere)
Yılı - Ülke:
ABD
Film Türü:
Aksiyon, Macera, Bilim Kurgu
Yönetmen:
Jon Watts
Film Süresi:
2s 13Dakika
IMDB PUANI:
Konusu:
Yenilmezler ile yaşadığı maceranın büyüsüne kapılan genç Peter kendini kanıtlama isteğiyle dolup taşan bir gençtir. Ancak yaşı gereği birçok farklı sorumluluğu vardır. May halası ile yaşayan genç Peter bir yandan da ona göz kulak olan Demir Adam ile arkadaşlığını ilerletmiştir. Okul hayatına alışmaya ve sıradan bir genç gibi yaşamaya çalışan Peter'ın aklında ise suçla savaşmak ve dünyayı daha güvenli bir hale getirmek vardır. Vulture yepyeni bir düşmanı yaşadığı şehre gönderdiğinde ise Peter'ın kendini gösterme fırsatı çıkacak, ancak en değerli gördüğü herkes tehdit altında olacaktır...
Ekleyen:
Medicus
BrtFix Özel Üyelik
Örümcek-Adam Eve Dönüş - Spider-Man Homecoming 2017 Türkçe Altyazı BRRip 720p 1080p 3D REMUX


Örümcek-Adam Eve Dönüş - Spider-Man Homecoming 2017 Türkçe Altyazı BRRip 720p 1080p 3D REMUX

BrtFix
  • Filmin Adı : Örümcek-Adam Eve Dönüş - Spider-Man Homecoming 2017
  • Format : BRRip
  • Boyut: 1.9 GB
  • Rip : BFxRG
  • BrtFix
  • Filmin Adı : Örümcek-Adam Eve Dönüş - Spider-Man Homecoming 2017
  • Format : 720p
  • Boyut: 5.5 GB
  • Rip : BFxRG
  • BrtFix
  • Filmin Adı : Örümcek-Adam Eve Dönüş - Spider-Man Homecoming 2017
  • Format : 1080p
  • Boyut: 9.9 GB
  • Rip : BFxRG
  • BrtFix
  • Filmin Adı : Örümcek-Adam Eve Dönüş - Spider-Man Homecoming 2017
  • Format : 3D 1080p
  • Boyut: 9.8 GB
  • Rip : BFxRG
  • BrtFix
  • Filmin Adı : Örümcek-Adam Eve Dönüş - Spider-Man Homecoming 2017
  • Format : REMUX
  • Boyut: 28.7 GB
  • Rip : BFxRG



  • BrtFix Özel Üyelik
    Örümcek-Adam Eve Dönüş - Spider-Man Homecoming 2017 Türkçe Altyazı BRRip 720p 1080p 3D REMUX
    Örümcek-Adam Eve Dönüş - Spider-Man Homecoming 2017 Türkçe Altyazı BRRip 720p 1080p 3D REMUX
    Video
    ID : 1
    Format : AVC
    Format/Info : Advanced Video Codec
    Format profile : [email protected]
    Format settings, CABAC : Yes
    Format settings, ReFrames : 5 frames
    Codec ID : V_MPEG4/ISO/AVC
    Duration : 2h 13mn
    Bit rate : 9 050 Kbps
    Width : 1 920 pixels
    Height : 808 pixels
    Display aspect ratio : 2.40:1
    Frame rate mode : Constant
    Frame rate : 23.976 fps
    Color space : YUV
    Chroma subsampling : 4:2:0
    Bit depth : 8 bits
    Scan type : Progressive
    Bits/(Pixel*Frame) : 0.243
    Stream size : 8.43 GiB (86%)
    Writing library : x264 core 152 r2851 ba24899
    Language : English

    Audio
    ID : 2
    Format : DTS
    Format/Info : Digital Theater Systems
    Mode : 16
    Format settings, Endianness : Big
    Codec ID : A_DTS
    Duration : 2h 13mn
    Bit rate mode : Constant
    Bit rate : 1 509 Kbps
    Channel(s) : 6 channels
    Channel positions : Front: L C R, Side: L R, LFE
    Sampling rate : 48.0 KHz
    Frame rate : 93.750 fps (512 spf)
    Bit depth : 24 bits
    Compression mode : Lossy
    Stream size : 1.41 GiB (14%)
    CBox BBCode:
    [B] [color=crimson] [Büyük][[/Büyük] Forum Konusu [Büyük]][/Büyük] [/color] [CENTER] ;brtfixlogo [br] [Büyük] [color=#000000] 👉 [/color] [url=http://brtfix.com/filmler/turkce-alt-yazi-filmler/3871-orumcek-adam-eve-donus-spider-man-homecoming-2017-turkce-altyazi-brrip-720p-1080p-3d-remux.html] [yeşil] [color=#FFFF00] Örümcek-Adam Eve Dönüş - Spider-Man Homecoming 2017 Türkçe Altyazı BRRip 720p 1080p 3D REMUX [/color] [/yeşil] [/url] [color=#000000] 👈 [/color] [/Büyük] [/B] [/CENTER]
    Destek İçin Yorum Yapmayı Unutmayın :)

    Yapılan Yorumlar Yönetici Tarafından Onaylandıkdan Sonra Gözükür...

    1. yusuf keleş_2
      türkçe dublaj ne zaman gelir 
      • 21 Ekim 2017 23:10
      1. RedMonster
        Gelecek Beklemede Kalın.
        RedMonster
        • 22 Ekim 2017 02:03
        1. yusuf keleş_2
          tamam teşekkürler
          • 22 Ekim 2017 13:24
          1. RedMonster
            Türkçe Dublaj Eklenmiştir....
            RedMonster
            • 24 Ekim 2017 00:01
    BilgiYorum Ekleyebilmeniz için Sitemize Kayıt Olmanız Gerekmektedir.