Please enable / Bitte aktiviere JavaScript!
Veuillez activer / Por favor activa el Javascript!>[ BURAYA TIKLAYIN ]
» » » Shot Caller 2017 Türkçe Altyazı BRRip 720p 1080p REMUX

Paylaş Shot Caller 2017 Türkçe Altyazı BRRip 720p 1080p REMUX

Filmin Adı:
Shot Caller 2017 Türkçe Altyazı BRRip 720p 1080p REMUX
Beğeni:

Oy kullanan 6 Kişi

Vizyon Tarihi:
26 Temmuz 2017 (Philippines)
Yılı - Ülke:
ABD
Film Türü:
Suç, Dram, Gerilim
Yönetmen:
Ric Roman Waugh
Film Süresi:
2s 1Dakika
IMDB PUANI:
Konusu:
Ric Roman Waugh yönetmenliğinde izleyeceğimiz film, temelde Amerikan hapishane sistemini eleştiriyor. Kendi halinde bir aile babasıyken alkollü araç kullandığı için bir kişinin ölümüne sebep olan Harlon, bir anda kendini yaşamından tamamen zıt koşullar içinde bulduğu hapishane ortamında şiddet ve türevleriyle tanışır. Yeni ortamına kısa sürede adapte olan Harlon, Money mahlasıyla gangster’lik yolunda ilerler. Karakterimiz eski kimliği, yaşamı ve ailesiyle ilişkisini yavaş yavaş yitirmeye başlarken etrafında gelişen olaylar da büründüğü yeni hali şekillendirmeye devam eder.
Ekleyen:
Medicus
BrtFix Özel Üyelik
Shot Caller 2017 Türkçe Altyazı BRRip 720p 1080p REMUX



Shot Caller 2017 Türkçe Altyazı BRRip 720p 1080p REMUX

BrtFix
  • Filmin Adı : Shot Caller 2017
  • Format : BRRip
  • Boyut: 1.6 GB
  • Rip : BFxRG
  • BrtFix
  • Filmin Adı : Shot Caller 2017
  • Format : 720p
  • Boyut: 4.4 GB
  • Rip : BFxRG
  • BrtFix
  • Filmin Adı : Shot Caller 2017
  • Format : 1080p
  • Boyut: 7.6 GB
  • Rip : BFxRG
  • BrtFix
  • Filmin Adı : Shot Caller 2017
  • Format : REMUX
  • Boyut: 32.6 GB
  • Rip : BFxRG



  • BrtFix Özel Üyelik
    Shot Caller 2017 Türkçe Altyazı BRRip 720p 1080p REMUX
    Video
    ID : 1
    Format : AVC
    Format/Info : Advanced Video Codec
    Format profile : [email protected]
    Format settings, CABAC : Yes
    Format settings, ReFrames : 5 frames
    Codec ID : V_MPEG4/ISO/AVC
    Duration : 2h 0mn
    Bit rate : 8 435 Kbps
    Width : 1 920 pixels
    Height : 800 pixels
    Display aspect ratio : 2.40:1
    Frame rate mode : Constant
    Frame rate : 23.976 (24000/1001) fps
    Color space : YUV
    Chroma subsampling : 4:2:0
    Bit depth : 8 bits
    Scan type : Progressive
    Bits/(Pixel*Frame) : 0.229
    Stream size : 6.96 GiB (91%)
    Writing library : x264 core 152 r2851 ba24899

    Audio
    ID : 2
    Format : AC-3
    Format/Info : Audio Coding 3
    Mode extension : CM (complete main)
    Format settings, Endianness : Big
    Codec ID : A_AC3
    Duration : 2h 0mn
    Bit rate mode : Constant
    Bit rate : 640 Kbps
    Channel(s) : 6 channels
    Channel positions : Front: L C R, Side: L R, LFE
    Sampling rate : 48.0 KHz
    Frame rate : 31.250 fps (1536 spf)
    Compression mode : Lossy
    Stream size : 552 MiB (7%)
    Language : English
    CBox BBCode:
    [B] [color=crimson] [Büyük][[/Büyük] Forum Konusu [Büyük]][/Büyük] [/color] [CENTER] ;brtfixlogo [br] [Büyük] [color=#000000] 👉 [/color] [url=http://brtfix.com/filmler/turkce-alt-yazi-filmler/3885-shot-caller-2017-turkce-altyazi-brrip-720p-1080p-remux.html] [yeşil] [color=#FFFF00] Shot Caller 2017 Türkçe Altyazı BRRip 720p 1080p REMUX [/color] [/yeşil] [/url] [color=#000000] 👈 [/color] [/Büyük] [/B] [/CENTER]
    Destek İçin Yorum Yapmayı Unutmayın :)

    Yapılan Yorumlar Yönetici Tarafından Onaylandıkdan Sonra Gözükür...

    BilgiYorum Ekleyebilmeniz için Sitemize Kayıt Olmanız Gerekmektedir.