Please enable / Bitte aktiviere JavaScript!
Veuillez activer / Por favor activa el Javascript!>[ BURAYA TIKLAYIN ]
» » » Wakefield 2016 Türkçe Altyazı BRRip 720p 1080p REMUX

Paylaş Wakefield 2016 Türkçe Altyazı BRRip 720p 1080p REMUX

Filmin Adı:
Wakefield 2016 Türkçe Altyazı BRRip 720p 1080p REMUX
Beğeni:

Oy kullanan 8 Kişi

Vizyon Tarihi:
28 Temmuz 2017 (İngiltere)
Yılı - Ülke:
ABD
Film Türü:
Dram
Yönetmen:
Robin Swicord
Film Süresi:
1s 46Dakika
IMDB PUANI:
Konusu:
Howard’ın onu seven bir karısı, iki kızı, Manhattan’da avukat olarak çalıştığı prestijli bir işi ve banliyöde konforlu bir evi vardır… Zamanla içten içe bunalan ve sonunda tükenen Howard, ailesini başına ne geldiği konusunda merak içinde bırakarak garajındaki tavan arasına saklanır… Onları penceresinden izler. Bir yabancı gibi gizlice karısını gözetler. Evin dışında geçirdiği günler ayları bulur… Acaba eski günlere dönebilmesi mümkün olacak mıdır ?
Ekleyen:
Medicus
BrtFix Özel Üyelik
Wakefield 2016 Türkçe Altyazı BRRip 720p 1080p REMUX



Wakefield 2016 Türkçe Altyazı BRRip 720p 1080p REMUX

BrtFix
  • Filmin Adı : Wakefield 2016
  • Format : BRRip
  • Boyut: 1.1 GB
  • Rip : BFxRG
  • BrtFix
  • Filmin Adı : Wakefield 2016
  • Format : 720p
  • Boyut: 5.5 GB
  • Rip : BFxRG
  • BrtFix
  • Filmin Adı : Wakefield 2016
  • Format : 1080p
  • Boyut: 8.7 GB
  • Rip : BFxRG
  • BrtFix
  • Filmin Adı : Wakefield 2016
  • Format : REMUX
  • Boyut: 21.3 GB
  • Rip : BFxRG



  • BrtFix Özel Üyelik
    Wakefield 2016 Türkçe Altyazı BRRip 720p 1080p REMUX
    Video
    ID : 1
    Format : AVC
    Format/Info : Advanced Video Codec
    Format profile : [email protected]
    Format settings, CABAC : Yes
    Format settings, ReFrames : 5 frames
    Codec ID : V_MPEG4/ISO/AVC
    Duration : 1h 48mn
    Bit rate : 10 000 Kbps
    Width : 1 920 pixels
    Height : 816 pixels
    Display aspect ratio : 2.35:1
    Frame rate mode : Constant
    Frame rate : 23.976 (24000/1001) fps
    Color space : YUV
    Chroma subsampling : 4:2:0
    Bit depth : 8 bits
    Scan type : Progressive
    Bits/(Pixel*Frame) : 0.266
    Stream size : 7.42 GiB (85%)
    Writing library : x264 core 152 r2851 ba24899

    Audio
    ID : 2
    Format : DTS
    Format/Info : Digital Theater Systems
    Mode : 16
    Format settings, Endianness : Big
    Codec ID : A_DTS
    Duration : 1h 48mn
    Bit rate mode : Constant
    Bit rate : 1 509 Kbps
    Channel(s) : 6 channels
    Channel positions : Front: L C R, Side: L R, LFE
    Sampling rate : 48.0 KHz
    Frame rate : 93.750 fps (512 spf)
    Bit depth : 24 bits
    Compression mode : Lossy
    Stream size : 1.15 GiB (13%)
    Language : English
    CBox BBCode:
    [B] [color=crimson] [Büyük][[/Büyük] Forum Konusu [Büyük]][/Büyük] [/color] [CENTER] ;brtfixlogo [br] [Büyük] [color=#000000] 👉 [/color] [url=http://brtfix.com/filmler/turkce-alt-yazi-filmler/3886-wakefield-2016-turkce-altyazi-brrip-720p-1080p-remux.html] [yeşil] [color=#FFFF00] Wakefield 2016 Türkçe Altyazı BRRip 720p 1080p REMUX [/color] [/yeşil] [/url] [color=#000000] 👈 [/color] [/Büyük] [/B] [/CENTER]
    Destek İçin Yorum Yapmayı Unutmayın :)

    Yapılan Yorumlar Yönetici Tarafından Onaylandıkdan Sonra Gözükür...

    BilgiYorum Ekleyebilmeniz için Sitemize Kayıt Olmanız Gerekmektedir.