» » » How to Be a Latin Lover 2017 Türkçe Altyazı BRRip 720p 1080p

Paylaş How to Be a Latin Lover 2017 Türkçe Altyazı BRRip 720p 1080p

Filmin Adı:
How to Be a Latin Lover 2017 Türkçe Altyazı BRRip 720p 1080p
Vizyon Tarihi:
28 Nisan 2017 (ABD)
Yılı - Ülke:
ABD
Film Türü:
Komedi
Yönetmen:
Ken Marino
Film Süresi:
1s 55Dakika
IMDB PUANI:
Konusu:
Zengin sevgilisi tarafından kapı dışarı edildikten sonra belli dönem bocalayıp, tekrardan eski günlerine geri dönen Meksikalı Romeo’nun, serüvenlerini ele almaktadır.
Komedi türündekiHow To Be A Latin Lover adlı filmin, yapımcılık görevini Ben Odell ve Eugenio Derbez ikilisi üstlenmiştir.
Ekleyen:
Medicus
BrtFix Özel Üyelik
How to Be a Latin Lover 2017 Türkçe Altyazı BRRip 720p 1080p



How to Be a Latin Lover 2017 Türkçe Altyazı BRRip 720p 1080p

BrtFix
  • Filmin Adı : How to Be a Latin Lover 2017
  • Format : BRRip
  • Boyut: 1.6 GB
  • Rip : BFxRG
  • BrtFix
  • Filmin Adı : How to Be a Latin Lover 2017
  • Format : 720p
  • Boyut: 5.5 GB
  • Rip : BFxRG
  • BrtFix
  • Filmin Adı : How to Be a Latin Lover 2017
  • Format : 1080p
  • Boyut: 8.8 GB
  • Rip : BFxRG



  • BrtFix Özel Üyelik
    How to Be a Latin Lover 2017 Türkçe Altyazı BRRip 720p 1080p
    Video
    ID : 1
    Format : AVC
    Format/Info : Advanced Video Codec
    Format profile : [email protected]
    Format settings, CABAC : Yes
    Format settings, ReFrames : 5 frames
    Codec ID : V_MPEG4/ISO/AVC
    Duration : 1h 55mn
    Bit rate : 9 316 Kbps
    Width : 1 920 pixels
    Height : 800 pixels
    Display aspect ratio : 2.40:1
    Frame rate mode : Constant
    Frame rate : 23.976 fps
    Color space : YUV
    Chroma subsampling : 4:2:0
    Bit depth : 8 bits
    Scan type : Progressive
    Bits/(Pixel*Frame) : 0.253
    Stream size : 7.52 GiB (86%)
    Writing library : x264 core 150 r2833 df79067

    Audio
    ID : 2
    Format : DTS
    Format/Info : Digital Theater Systems
    Mode : 16
    Format settings, Endianness : Big
    Codec ID : A_DTS
    Duration : 1h 55mn
    Bit rate mode : Constant
    Bit rate : 1 509 Kbps
    Channel(s) : 6 channels
    Channel positions : Front: L C R, Side: L R, LFE
    Sampling rate : 48.0 KHz
    Frame rate : 93.750 fps (512 spf)
    Bit depth : 24 bits
    Compression mode : Lossy
    Stream size : 1.22 GiB (14%)
    Language : English
    CBox BBCode:
    [B] [color=crimson] [Büyük][[/Büyük] Forum Konusu [Büyük]][/Büyük] [/color] [CENTER] ;brtfixlogo [br] [Büyük] [color=#000000] 👉 [/color] [url=http://brtfix.com/filmler/turkce-alt-yazi-filmler/3893-how-to-be-a-latin-lover-2017-turkce-altyazi-brrip-720p-1080p.html] [yeşil] [color=#FFFF00] How to Be a Latin Lover 2017 Türkçe Altyazı BRRip 720p 1080p [/color] [/yeşil] [/url] [color=#000000] 👈 [/color] [/Büyük] [/B] [/CENTER]
    Destek İçin Yorum Yapmayı Unutmayın :)

    Yapılan Yorumlar Yönetici Tarafından Onaylandıkdan Sonra Gözükür...

    BilgiYorum Ekleyebilmeniz için Sitemize Kayıt Olmanız Gerekmektedir.