Please enable / Bitte aktiviere JavaScript!
Veuillez activer / Por favor activa el Javascript!>[ BURAYA TIKLAYIN ]
» » » Karayip Korsanları Salazar’ın İntikamı - Pirates of the Caribbean Dead Men Tell No Tales 2017 Türkçe Altyazı HDRip WEB-DL 720p 1080p

Paylaş Karayip Korsanları Salazar’ın İntikamı - Pirates of the Caribbean Dead Men Tell No Tales 2017 Türkçe Altyazı HDRip WEB-DL 720p 1080p

Filmin Adı:
Karayip Korsanları Salazar’ın İntikamı - Pirates of the Caribbean Dead Men Tell No Tales 2017 Türkçe Altyazı HDRip WEB-DL 720p 1080p
Beğeni:

Oy kullanan 4 Kişi

Vizyon Tarihi:
26 Mayıs 2017 (İngiltere)
Yılı - Ülke:
ABD
Film Türü:
Aksiyon, Macera, Fantezi
Yönetmen:
Joachim Rønning, Espen Sandberg
Film Süresi:
2s 9Dakika
IMDB PUANI:
Konusu:
Johnny Depp, Karayip Korsanları: Salazar'ın İntikamı filminde ikonik, heyecan verici anti-kahraman rolü Jack Sparrow ile sinemaya geri dönüyor. Çılgın maceralara atılan talihsiz Jack Sparrow yaklaşan kötü kaderin rüzgarını hissetmeye başlamıştır. Korkunç Kaptan Salazar (Javier Bardem) tarafından yönetilen ölümcül hayalet korsanlar, Jack hariç denizdeki tüm korsanları öldürerek Şeytan Üçgeni'nden kaçmıştır ve Jack'in hayatta kalmak için tek umudu efsanevi Poseidon Asası'nı bulmaktır. Jack Sparrow, asayı bulmak için güzel ve zeki gökbilimci Carina Smyth (Kaya Scodelario) ve Kraliyet Donanmasından Henry (Brenton Thwaites) adında dik başlı, genç bir denizciyle pek de kolay olmayan bir anlaşma yapmak zorundadır. Küçük ve külüstür gemisi Dying Gull'un dümenindeki Jack Sparrow, yalnızca kötü kaderini tersine çevirmenin değil, şu ana kadar karşılaştığı en dişli ve korkunç düşmandan kendini nasıl kurtaracağının da yollarını aramaktadır.
Ekleyen:
Medicus
BrtFix Özel Üyelik
Karayip Korsanları Salazar’ın İntikamı - Pirates of the Caribbean Dead Men Tell No Tales 2017 Türkçe Altyazı HDRip WEB-DL 720p 1080p



Karayip Korsanları Salazar’ın İntikamı - Pirates of the Caribbean Dead Men Tell No Tales 2017 Türkçe Altyazı HDRip WEB-DL 720p 1080p

BrtFix
  • Filmin Adı : Karayip Korsanları Salazar’ın İntikamı - Pirates of the Caribbean Dead Men Tell No Tales 2017
  • Format : HDRip
  • Boyut: 1.5 GB
  • Rip : BFxRG
  • BrtFix
  • Filmin Adı : Karayip Korsanları Salazar’ın İntikamı - Pirates of the Caribbean Dead Men Tell No Tales 2017
  • Format : WEB-DL
  • Boyut: 1.8 GB
  • Rip : BFxRG
  • BrtFix
  • Filmin Adı : Karayip Korsanları Salazar’ın İntikamı - Pirates of the Caribbean Dead Men Tell No Tales 2017
  • Format : 720p
  • Boyut: 3.8 GB
  • Rip : BFxRG
  • BrtFix
  • Filmin Adı : Karayip Korsanları Salazar’ın İntikamı - Pirates of the Caribbean Dead Men Tell No Tales 2017
  • Format : 1080p
  • Boyut: 4.4 GB
  • Rip : BFxRG



  • BrtFix Özel Üyelik
    Karayip Korsanları Salazar’ın İntikamı - Pirates of the Caribbean Dead Men Tell No Tales 2017 Türkçe Altyazı HDRip WEB-DL 720p 1080p
    Video
    ID : 1
    Format : AVC
    Format/Info : Advanced Video Codec
    Format profile : [email protected]
    Format settings, CABAC : Yes
    Format settings, ReFrames : 5 frames
    Codec ID : V_MPEG4/ISO/AVC
    Duration : 2 h 9 min
    Bit rate : 4 439 kb/s
    Width : 1 920 pixels
    Height : 800 pixels
    Display aspect ratio : 2.40:1
    Frame rate mode : Constant
    Frame rate : 23.976 (24000/1001) FPS
    Color space : YUV
    Chroma subsampling : 4:2:0
    Bit depth : 8 bits
    Scan type : Progressive
    Bits/(Pixel*Frame) : 0.121
    Stream size : 4.00 GiB (90%)
    Title : Pirates.of.the.Caribbean.Dead.Men.Tell.No.Tales.2017.1080p.WEB-DL.DD5.1.H264-FGT
    Language : English
    Default : Yes
    Forced : No
    Color range : Limited
    Color primaries : BT.709
    Transfer characteristics : BT.709
    Matrix coefficients : BT.709

    Audio
    ID : 2
    Format : AC-3
    Format/Info : Audio Coding 3
    Format settings, Endianness : Big
    Codec ID : A_AC3
    Duration : 2 h 9 min
    Bit rate mode : Constant
    Bit rate : 384 kb/s
    Channel(s) : 6 channels
    Channel positions : Front: L C R, Side: L R, LFE
    Sampling rate : 48.0 kHz
    Frame rate : 31.250 FPS (1536 spf)
    Bit depth : 16 bits
    Compression mode : Lossy
    Stream size : 355 MiB (8%)
    Title : Pirates.of.the.Caribbean.Dead.Men.Tell.No.Tales.2017.1080p.WEB-DL.DD5.1.H264-FGT
    Language : English
    Service kind : Complete Main
    Default : Yes
    Forced : No
    CBox BBCode:
    [B] [color=crimson] [Büyük][[/Büyük] Forum Konusu [Büyük]][/Büyük] [/color] [CENTER] ;brtfixlogo [br] [Büyük] [color=#000000] 👉 [/color] [url=http://brtfix.com/filmler/turkce-alt-yazi-filmler/4034-karayip-korsanlari-salazarin-intikami-pirates-of-the-caribbean-dead-men-tell-no-tales-2017-turkce-altyazi-hdrip-web-dl-720p-1080p.html] [yeşil] [color=#FFFF00] Karayip Korsanları Salazar’ın İntikamı - Pirates of the Caribbean Dead Men Tell No Tales 2017 Türkçe Altyazı HDRip WEB-DL 720p 1080p [/color] [/yeşil] [/url] [color=#000000] 👈 [/color] [/Büyük] [/B] [/CENTER]
    Destek İçin Yorum Yapmayı Unutmayın :)

    Yapılan Yorumlar Yönetici Tarafından Onaylandıkdan Sonra Gözükür...

    BilgiYorum Ekleyebilmeniz için Sitemize Kayıt Olmanız Gerekmektedir.