Please enable / Bitte aktiviere JavaScript!
Veuillez activer / Por favor activa el Javascript!>[ BURAYA TIKLAYIN ]
» » » Girls Trip 2017 Türkçe Altyazı HDRip WEB-DL 720p

Paylaş Girls Trip 2017 Türkçe Altyazı HDRip WEB-DL 720p

Filmin Adı:
Girls Trip 2017 Türkçe Altyazı HDRip WEB-DL 720p
Beğeni:

Oy kullanan 0 Kişi

Vizyon Tarihi:
26 Temmuz 2017 (İngiltere)
Yılı - Ülke:
ABD
Film Türü:
Komedi
Yönetmen:
Malcolm D. Lee
Film Süresi:
2s 2Dakika
IMDB PUANI:
Konusu:
Dört sıkı arkadaş, New Orleans'daki Yıllık Esans Festivaline seyahate giden 4 sıkı arkadaş; kendilerini romantizm, kavga, dans ve içki dolu bir macera içerisinde bulurlar.
Ekleyen:
Medicus
BrtFix Özel Üyelik
Girls Trip 2017 Türkçe Altyazı HDRip WEB-DL 720p



Girls Trip 2017 Türkçe Altyazı HDRip WEB-DL 720p

BrtFix
  • Filmin Adı : Girls Trip 2017
  • Format : HDRip
  • Boyut: 1.4 GB
  • Rip : BFxRG
  • BrtFix
  • Filmin Adı : Girls Trip 2017
  • Format : WEB-DL
  • Boyut: 1.7 GB
  • Rip : BFxRG
  • BrtFix
  • Filmin Adı : Girls Trip 2017
  • Format : 720p
  • Boyut: 3.7 GB
  • Rip : BFxRG



  • BrtFix Özel Üyelik
    Girls Trip 2017 Türkçe Altyazı HDRip WEB-DL 720p
    Video
    ID : 1
    Format : AVC
    Format/Info : Advanced Video Codec
    Format profile : [email protected]
    Format settings, CABAC : No
    Format settings, ReFrames : 2 frames
    Codec ID : V_MPEG4/ISO/AVC
    Duration : 2 h 2 min
    Bit rate : 3 925 kb/s
    Width : 1 280 pixels
    Height : 532 pixels
    Display aspect ratio : 2.40:1
    Frame rate mode : Constant
    Frame rate : 23.976 FPS
    Color space : YUV
    Chroma subsampling : 4:2:0
    Bit depth : 8 bits
    Scan type : Progressive
    Bits/(Pixel*Frame) : 0.240
    Stream size : 3.35 GiB (89%)
    Language : English

    Audio
    ID : 2
    Format : AC-3
    Format/Info : Audio Coding 3
    Format settings, Endianness : Big
    Codec ID : A_AC3
    Duration : 2 h 2 min
    Bit rate mode : Constant
    Bit rate : 384 kb/s
    Channel(s) : 6 channels
    Channel positions : Front: L C R, Side: L R, LFE
    Sampling rate : 48.0 kHz
    Frame rate : 31.250 FPS (1536 spf)
    Bit depth : 16 bits
    Compression mode : Lossy
    Stream size : 335 MiB (9%)
    Title : Girls.Trip.2017.720p.WEB-DL.DD5.1.H264-FGT
    Service kind : Complete Main
    CBox BBCode:
    [B] [color=crimson] [Büyük][[/Büyük] Forum Konusu [Büyük]][/Büyük] [/color] [CENTER] ;brtfixlogo [br] [Büyük] [color=#000000] 👉 [/color] [url=http://brtfix.com/filmler/turkce-alt-yazi-filmler/4195-girls-trip-2017-turkce-altyazi-hdrip-web-dl-720p.html] [yeşil] [color=#FFFF00] Girls Trip 2017 Türkçe Altyazı HDRip WEB-DL 720p [/color] [/yeşil] [/url] [color=#000000] 👈 [/color] [/Büyük] [/B] [/CENTER]
    Destek İçin Yorum Yapmayı Unutmayın :)

    Yapılan Yorumlar Yönetici Tarafından Onaylandıkdan Sonra Gözükür...

    BilgiYorum Ekleyebilmeniz için Sitemize Kayıt Olmanız Gerekmektedir.