Please enable / Bitte aktiviere JavaScript!
Veuillez activer / Por favor activa el Javascript!>[ BURAYA TIKLAYIN ]
» » » Annabelle 2 Kötülüğün Doğuşu - Annabelle 2 Creation 2017 Türkçe Altyazı BRRip 720p 1080p

Paylaş Annabelle 2 Kötülüğün Doğuşu - Annabelle 2 Creation 2017 Türkçe Altyazı BRRip 720p 1080p

Filmin Adı:
Annabelle 2 Kötülüğün Doğuşu - Annabelle 2 Creation 2017 Türkçe Altyazı BRRip 720p 1080p
Beğeni:

Oy kullanan 0 Kişi

Vizyon Tarihi:
11 Ağustos 2017 (İngiltere)
Yılı - Ülke:
ABD
Film Türü:
Korku, Gizem, Gerilim
Yönetmen:
David F. Sandberg
Film Süresi:
1s 49Dakika
IMDB PUANI:
Konusu:
Oyuncak bebek yapımıyla uğraşan bir adam ve eşi mükemmel bir aile hayatı sürerken büyük bir trajediyle karşı karşıya kalırlar. Küçük kızları hayatını kaybeder. Aradan birkaç yıl geçtiği halde acıyı atlatamayan çift kapanan bir yetimhanenin kızlarını ve görevli rahibesini evlerinde misafir olarak ağırlarlar. Ancak bu küçük kız grubu, özellikle de Janice, oyuncakçının yarattığı lanetli Annabelle'in hedefi olacaktır...
Korku Seansı serisinin ilk filminin spin-off projesi olan Annabelle'in büyük gişe başarısı kazanmasının ardından çekimine karar verilen 2. filmidir.
Ekleyen:
Medicus
BrtFix Özel Üyelik
Annabelle 2 Kötülüğün Doğuşu - Annabelle 2 Creation 2017 Türkçe Altyazı BRRip 720p 1080p



Annabelle 2 Kötülüğün Doğuşu - Annabelle 2 Creation 2017 Türkçe Altyazı BRRip 720p 1080p

BrtFix
  • Filmin Adı : Annabelle 2 Kötülüğün Doğuşu - Annabelle 2 Creation 2017
  • Format : BRRip
  • Boyut: 1.1 GB
  • Rip : BFxRG
  • BrtFix
  • Filmin Adı : Annabelle 2 Kötülüğün Doğuşu - Annabelle 2 Creation 2017
  • Format : 720p
  • Boyut: 4.4 GB
  • Rip : BFxRG
  • BrtFix
  • Filmin Adı : Annabelle 2 Kötülüğün Doğuşu - Annabelle 2 Creation 2017
  • Format : 1080p
  • Boyut: 7.7 GB
  • Rip : BFxRG



  • BrtFix Özel Üyelik
    Annabelle 2 Kötülüğün Doğuşu - Annabelle 2 Creation 2017 Türkçe Altyazı BRRip 720p 1080p
    Video
    ID : 1
    Format : AVC
    Format/Info : Advanced Video Codec
    Format profile : [email protected]
    Format settings, CABAC : Yes
    Format settings, ReFrames : 5 frames
    Codec ID : V_MPEG4/ISO/AVC
    Duration : 1h 49mn
    Bit rate : 9 343 Kbps
    Width : 1 920 pixels
    Height : 800 pixels
    Display aspect ratio : 2.40:1
    Frame rate mode : Constant
    Frame rate : 23.976 (24000/1001) fps
    Color space : YUV
    Chroma subsampling : 4:2:0
    Bit depth : 8 bits
    Scan type : Progressive
    Bits/(Pixel*Frame) : 0.254
    Stream size : 7.16 GiB (94%)
    Writing library : x264 core 152 r2851 ba24899

    Audio
    ID : 2
    Format : AC-3
    Format/Info : Audio Coding 3
    Mode extension : CM (complete main)
    Format settings, Endianness : Big
    Codec ID : A_AC3
    Duration : 1h 49mn
    Bit rate mode : Constant
    Bit rate : 640 Kbps
    Channel(s) : 6 channels
    Channel positions : Front: L C R, Side: L R, LFE
    Sampling rate : 48.0 KHz
    Frame rate : 31.250 fps (1536 spf)
    Compression mode : Lossy
    Stream size : 502 MiB (6%)
    Language : English
    Default : Yes
    Forced : No
    CBox BBCode:
    [B] [color=crimson] [Büyük][[/Büyük] Forum Konusu [Büyük]][/Büyük] [/color] [CENTER] ;brtfixlogo [br] [Büyük] [color=#000000] 👉 [/color] [url=http://brtfix.com/filmler/turkce-alt-yazi-filmler/4228-annabelle-2-kotulugun-dogusu-annabelle-2-creation-2017-turkce-altyazi-brrip-720p-1080p.html] [yeşil] [color=#FFFF00] Annabelle 2 Kötülüğün Doğuşu - Annabelle 2 Creation 2017 Türkçe Altyazı BRRip 720p 1080p [/color] [/yeşil] [/url] [color=#000000] 👈 [/color] [/Büyük] [/B] [/CENTER]
    Destek İçin Yorum Yapmayı Unutmayın :)

    Yapılan Yorumlar Yönetici Tarafından Onaylandıkdan Sonra Gözükür...

    BilgiYorum Ekleyebilmeniz için Sitemize Kayıt Olmanız Gerekmektedir.