Please enable / Bitte aktiviere JavaScript!
Veuillez activer / Por favor activa el Javascript!>[ BURAYA TIKLAYIN ]
» » » Maceracılar - The Adventurers 2017 Türkçe Altyazı BRRip 720p 1080p REMUX

Paylaş Maceracılar - The Adventurers 2017 Türkçe Altyazı BRRip 720p 1080p REMUX

Filmin Adı:
Maceracılar - The Adventurers 2017 Türkçe Altyazı BRRip 720p 1080p REMUX
Beğeni:

Oy kullanan 4 Kişi

Vizyon Tarihi:
11 Ağustos 2017 (Çin)
Yılı - Ülke:
Çin, Hong Kong, Czech Republic
Film Türü:
Aksiyon, Macera, Suç
Yönetmen:
Stephen Fung
Oyuncular:
Film Süresi:
2s 20Dakika
IMDB PUANI:
Konusu:
Dünyanın en yetenekli hırsızları, hayatlarının soygununu gerçekleştirmek için güçlerini birleştirirler. Fakat kendilerini Avrupa’da efsanevi bir Fransız dedektif tarafından takip edilirken bulunca, işlerini bir sonraki seviyeye taşımak zorunda kalırlar…
Ekleyen:
Medicus
BrtFix Özel Üyelik
Maceracılar - The Adventurers 2017 Türkçe Altyazı BRRip 720p 1080p REMUX



Maceracılar - The Adventurers 2017 Türkçe Altyazı BRRip 720p 1080p REMUX

BrtFix
  • Filmin Adı : Maceracılar - The Adventurers 2017
  • Format : BRRip
  • Boyut: 932 MB
  • Rip : BFxRG
  • BrtFix
  • Filmin Adı : Maceracılar - The Adventurers 2017
  • Format : 720p
  • Boyut: 4.4 GB
  • Rip : BFxRG
  • BrtFix
  • Filmin Adı : Maceracılar - The Adventurers 2017
  • Format : 1080p
  • Boyut: 8.7 GB
  • Rip : BFxRG
  • BrtFix
  • Filmin Adı : Maceracılar - The Adventurers 2017
  • Format : REMUX
  • Boyut: 29.1 GB
  • Rip : BFxRG



  • BrtFix Özel Üyelik
    Maceracılar - The Adventurers 2017 Türkçe Altyazı BRRip 720p 1080p REMUX
    Video
    ID : 1
    Format : AVC
    Format/Info : Advanced Video Codec
    Format profile : [email protected]
    Format settings, CABAC : Yes
    Format settings, ReFrames : 4 frames
    Codec ID : V_MPEG4/ISO/AVC
    Duration : 1 h 47 min
    Bit rate : 10.8 Mb/s
    Nominal bit rate : 11.5 Mb/s
    Width : 1 920 pixels
    Height : 804 pixels
    Display aspect ratio : 2.40:1
    Frame rate mode : Constant
    Frame rate : 24.000 FPS
    Color space : YUV
    Chroma subsampling : 4:2:0
    Bit depth : 8 bits
    Scan type : Progressive
    Bits/(Pixel*Frame) : 0.291
    Stream size : 8.07 GiB (93%)
    Title : The.Adventurers.2017.CHINESE.1080p.BluRay.x264.DD5.1-FGT
    Writing library : x264 core 148 r2795 aaa9aa8
    Language : English

    Audio
    ID : 2
    Format : AC-3
    Format/Info : Audio Coding 3
    Format settings, Endianness : Big
    Codec ID : A_AC3
    Duration : 1 h 47 min
    Bit rate mode : Constant
    Bit rate : 640 kb/s
    Channel(s) : 6 channels
    Channel positions : Front: L C R, Side: L R, LFE
    Sampling rate : 48.0 kHz
    Frame rate : 31.250 FPS (1536 spf)
    Bit depth : 16 bits
    Compression mode : Lossy
    Stream size : 490 MiB (5%)

    CBox BBCode:
    [B] [color=crimson] [Büyük][[/Büyük] Forum Konusu [Büyük]][/Büyük] [/color] [CENTER] ;brtfixlogo [br] [Büyük] [color=#000000] 👉 [/color] [url=http://brtfix.com/filmler/turkce-alt-yazi-filmler/4341-maceracilar-the-adventurers-2017-turkce-altyazi-brrip-720p-1080p-remux.html] [yeşil] [color=#FFFF00] Maceracılar - The Adventurers 2017 Türkçe Altyazı BRRip 720p 1080p REMUX [/color] [/yeşil] [/url] [color=#000000] 👈 [/color] [/Büyük] [/B] [/CENTER]
    Destek İçin Yorum Yapmayı Unutmayın :)

    Yapılan Yorumlar Yönetici Tarafından Onaylandıkdan Sonra Gözükür...

    BilgiYorum Ekleyebilmeniz için Sitemize Kayıt Olmanız Gerekmektedir.