» » » Jüpiter Yükseliyor - Jupiter Ascending 2015 Türkçe Dublaj 4K UHD 2160p HEVC


Paylaş Jüpiter Yükseliyor - Jupiter Ascending 2015 Türkçe Dublaj 4K UHD 2160p HEVC

Filmin Adı:
Jüpiter Yükseliyor - Jupiter Ascending 2015 Türkçe Dublaj 4K UHD 2160p HEVC
Beğeni:

Oy kullanan 0 Kişi

Vizyon Tarihi:
6 Şubat 2015 (İngiltere)
Yılı - Ülke:
ABD, Avustralya
Film Kategorisi:
Film Türü:
Aksiyon, Macera, Bilim Kurgu
Yönetmen:
Lana Wachowski, Lilly Wachowski
Film Süresi:
2s 7Dakika
IMDB PUANI:
Konusu:
Öyle bir evren düşünün ki insanoğlu besin zincirinin en alt basamağını oluşturuyor. Hizmetçilik yapan sıradan genç bir kadın ise büyük bir suikastın hedefinde. Zira evrenin tek hakimi olan ölümsüz Kraliçe, çıkartılan genetik haritalar göre bu genç kadının kendi hükümdarlığının sonunu getireceğini düşünüyor...
Ekleyen:
Medicus
BrtFix Özel Üyelik

Jüpiter Yükseliyor - Jupiter Ascending 2015 Türkçe Dublaj 4K UHD 2160p HEVC


Jüpiter Yükseliyor - Jupiter Ascending 2015 Türkçe Dublaj 4K UHD 2160p HEVC


Jüpiter Yükseliyor - Jupiter Ascending 2015 Türkçe Dublaj 4K UHD 2160p HEVC

🎥 Dosya Türü : .mkvDosya Boyutu : 60.14 GB
Bu alan PREMIUM Üyelere özeldir. HEMEN PREMIUM Üyelik alarak reklamdan kurtulun ve indirmenin keyfini çıkarın ...
PREMiUM ÜYE OL




Jüpiter Yükseliyor - Jupiter Ascending 2015 Türkçe Dublaj 4K UHD 2160p

🎥 Dosya Türü : .mkvDosya Boyutu : 21.1 GB
Bu alan PREMIUM Üyelere özeldir. HEMEN PREMIUM Üyelik alarak reklamdan kurtulun ve indirmenin keyfini çıkarın ...
PREMiUM ÜYE OL








BrtFix Özel Üyelik
Jüpiter Yükseliyor - Jupiter Ascending 2015 Türkçe Dublaj 4K UHD 2160p HEVC
Jüpiter Yükseliyor - Jupiter Ascending 2015 Türkçe Dublaj 4K UHD 2160p HEVC
Jüpiter Yükseliyor - Jupiter Ascending 2015 Türkçe Dublaj 4K UHD 2160p HEVC

Video
ID : 1
Format : HEVC
Format/Info : High Efficiency Video Coding
Format profile : Main [email protected]@High
Codec ID : V_MPEGH/ISO/HEVC
Duration : 2 h 7 min
Bit rate : 61.7 Mb/s
Width : 3 840 pixels
Height : 2 160 pixels
Display aspect ratio : 16:9
Frame rate mode : Constant
Frame rate : 23.976 (24000/1001) FPS
Color space : YUV
Chroma subsampling : 4:2:0 (Type 2)
Bit depth : 10 bits
Bits/(Pixel*Frame) : 0.310
Stream size : 55.0 GiB (91%)
Default : Yes
Forced : No
Color range : Limited
Color primaries : BT.2020
Transfer characteristics : SMPTE ST 2084
Matrix coefficients : BT.2020 non-constant
Mastering display color primar : R: x=0.680000 y=0.320000, G: x=0.265000 y=0.690000, B: x=0.150000 y=0.060000, White point: x=0.312700 y=0.329000
Mastering display luminance : min: 0.0050 cd/m2, max: 4000.0000 cd/m2

Audio #1
ID : 2
Format : AC-3
Format/Info : Audio Coding 3
Mode : Dolby Digital
Format settings, Endianness : Big
Codec ID : A_AC3
Duration : 2 h 7 min
Bit rate mode : Constant
Bit rate : 192 kb/s
Channel(s) : 2 channels
Channel positions : Front: L R
Sampling rate : 48.0 kHz
Frame rate : 31.250 FPS (1536 SPF)
Bit depth : 16 bits
Compression mode : Lossy
Stream size : 175 MiB (0%)
Language : Turkish
Service kind : Complete Main
Default : Yes
Forced : Yes

Audio #2
ID : 3
Format : TrueHD
Format profile : TrueHD+Atmos / TrueHD
Codec ID : A_TRUEHD
Duration : 2 h 7 min
Bit rate mode : Variable
Bit rate : 5 484 kb/s
Maximum bit rate : 8 955 kb/s
Channel(s) : Object Based / 8 channels
Channel positions : Object Based / Front: L C R, Side: L R, Back: L R, LFE
Sampling rate : / 48.0 kHz
Frame rate : 1 200.000 FPS (40 SPF)
Compression mode : Lossless
Stream size : 4.89 GiB (8%)
Language : English
Default : No
Forced : No


CBox BBCode:
[B] [color=crimson] [Büyük][[/Büyük] Forum Konusu [Büyük]][/Büyük] [/color] [CENTER] ;brtfixlogo [br] [Büyük] [color=#000000] 👉 [/color] [url=https://brtfix.com/filmler/4k-ultra-hd/5043-jupiter-yukseliyor-jupiter-ascending-2015-turkce-dublaj-4k-uhd-2160p.html] [yeşil] [color=#FFFF00] Jüpiter Yükseliyor - Jupiter Ascending 2015 Türkçe Dublaj 4K UHD 2160p HEVC [/color] [/yeşil] [/url] [color=#000000] 👈 [/color] [/Büyük] [/B] [/CENTER]
Destek İçin Yorum Yapmayı Unutmayın :)

Yapılan Yorumlar Yönetici Tarafından Onaylandıkdan Sonra Gözükür...

BilgiYorum Ekleyebilmeniz için Sitemize Kayıt Olmanız Gerekmektedir.