» » » Forrest Gump 1994 2160p BluRay 4K Ultra HD HEVC HDR Türkçe Dublaj

Paylaş Forrest Gump 1994 2160p BluRay 4K Ultra HD HEVC HDR Türkçe Dublaj

Filmin Adı:
Forrest Gump 1994 2160p BluRay 4K Ultra HD HEVC HDR Türkçe Dublaj
Beğeni:

Oy kullanan 89 Kişi

Vizyon Tarihi:
7 Ekim 1994 (İngiltere)
Yılı - Ülke:
ABD
Film Kategorisi:
Film Türü:
Dram, Romantik
Yönetmen:
Robert Zemeckis
Film Süresi:
2s 22Dakika
IMDB PUANI:
Konusu:
Forrest sakat bir çocuktur. Ancak bu sakatlığı onun normal bir insan haline dönme arzusunu köreltmemiştir. Tam otuz yıl boyunca inanılmaz zorluklar yaşayan Forrest sonunda kendisini ülkesinin en sevilen futbol yıldızları arasında görmesini sağlamıştır. Bu çabaları o kadarla da kalmamış katıldığı Vietnam Savaşı'ndan bir kahraman olarak dönmüş ve Beyaz Saray'da şeref madalyası almış ama en önemlisi de dünyada en çok sevdiği şey olan sevgilisinin kalbini kazanıp onunla evlenmeyi başarmıştır. Çok akıllı biri olmasa da kalbinin neyi istediğini çok iyi bilen Forrest ona ulaşabilmek için olağanüstü bir çaba sarf ederek herkese istediğini elde edebileceği konusunda bir örnek teşkil etmiştir.
Ekleyen:
RedMonster
BrtFix Özel Üyelik

Forrest Gump 1994 2160p BluRay 4K Ultra HD HEVC HDR Türkçe Dublaj

Forrest Gump (1994) 2160p 4K UHD HEVC HDR

🎥 Görüntü Kalitesi : 2160p (HEVC - HDR)Dosya Boyutu : 77.55 GB



Forrest Gump (1994) 2160p 4K UHD 10 Bit HDR

🎥 Görüntü Kalitesi : 2160p (x265 - HDR)Dosya Boyutu : 35.03 GB






BrtFix Özel Üyelik
Forrest Gump 1994 2160p BluRay 4K Ultra HD HEVC HDR Türkçe Dublaj
Forrest Gump 1994 2160p BluRay 4K Ultra HD HEVC HDR Türkçe Dublaj
Forrest Gump 1994 2160p BluRay 4K Ultra HD HEVC HDR Türkçe Dublaj
BrtFix.Com
Video
ID : 1
Format : HEVC
Format/Info : High Efficiency Video Coding
Format profile : Main [email protected]@High
Codec ID : V_MPEGH/ISO/HEVC
Duration : 2 h 22 min
Bit rate : 26.5 Mb/s
Width : 3 840 pixels
Height : 1 606 pixels
Display aspect ratio : 2.40:1
Frame rate mode : Constant
Frame rate : 23.976 (24000/1001) FPS
Color space : YUV
Chroma subsampling : 4:2:0 (Type 2)
Bit depth : 10 bits
Bits/(Pixel*Frame) : 0.179
Stream size : 26.3 GiB (81%)
Writing library : x265 2.8+10-703eade86b53:[Windows][GCC 8.1.0][64 bit] 10bit
Encoding settings : cpuid=1111039 / frame-threads=5 / numa-pools=36 / wpp / no-pmode / no-pme / no-psnr / no-ssim / log-level=2 / input-csp=1 / input-res=3840x1606 / interlace=0 / total-frames=204478 / level-idc=51 / high-tier=1 / uhd-bd=0 / ref=4 / no-allow-non-conformance / repeat-headers / annexb / aud / hrd / info / hash=0 / no-temporal-layers / no-open-gop / min-keyint=24 / keyint=240 / gop-lookahead=0 / bframes=4 / b-adapt=2 / b-pyramid / bframe-bias=0 / rc-lookahead=25 / lookahead-slices=4 / scenecut=40 / radl=0 / no-intra-refresh / ctu=64 / min-cu-size=8 / rect / no-amp / max-tu-size=32 / tu-inter-depth=1 / tu-intra-depth=1 / limit-tu=0 / rdoq-level=2 / dynamic-rd=0.00 / no-ssim-rd / signhide / no-tskip / nr-intra=0 / nr-inter=0 / no-constrained-intra / no-strong-intra-smoothing / max-merge=3 / limit-refs=3 / limit-modes / me=3 / subme=3 / merange=57 / temporal-mvp / weightp / no-weightb / no-analyze-src-pics / deblock=-3:-3 / no-sao / no-sao-non-deblock / rd=4 / no-early-skip / rskip / no-fast-intra / no-tskip-fast / no-cu-lossless / no-b-intra / no-splitrd-skip / rdpenalty=0 / psy-rd=2.00 / psy-rdoq=1.00 / no-rd-refine / no-lossless / cbqpoffs=0 / crqpoffs=0 / rc=crf / crf=17.0 / qcomp=0.60 / qpstep=4 / stats-write=0 / stats-read=0 / vbv-maxrate=160000 / vbv-bufsize=160000 / vbv-init=0.9 / crf-max=0.0 / crf-min=0.0 / ipratio=1.40 / pbratio=1.30 / aq-mode=1 / aq-strength=1.00 / cutree / zone-count=0 / no-strict-cbr / qg-size=32 / no-rc-grain / qpmax=69 / qpmin=0 / no-const-vbv / sar=1 / overscan=0 / videoformat=5 / range=0 / colorprim=9 / transfer=16 / colormatrix=9 / chromaloc=1 / chromaloc-top=2 / chromaloc-bottom=2 / display-window=0 / master-display=G(13250,34500)B(7500,3000)R(34000,16000)WP(15635,16450)L(10000000,1) / max-cll=0,0 / min-luma=0 / max-luma=1023 / log2-max-poc-lsb=8 / vui-timing-info / vui-hrd-info / slices=1 / no-opt-qp-pps / no-opt-ref-list-length-pps / no-multi-pass-opt-rps / scenecut-bias=0.05 / no-opt-cu-delta-qp / no-aq-motion / hdr / hdr-opt / no-dhdr10-opt / no-idr-recovery-sei / analysis-reuse-level=5 / scale-factor=0 / refine-intra=0 / refine-inter=0 / refine-mv=0 / no-limit-sao / ctu-info=0 / no-lowpass-dct / refine-mv-type=0 / copy-pic=1 / max-ausize-factor=1.0 / no-dynamic-refine / no-single-sei
Default : Yes
Forced : No
Color range : Limited
Color primaries : BT.2020
Transfer characteristics : SMPTE ST 2084
Matrix coefficients : BT.2020 non-constant
Mastering display color primar : R: x=0.680000 y=0.320000, G: x=0.265000 y=0.690000, B: x=0.150000 y=0.060000, White point: x=0.312700 y=0.329000
Mastering display luminance : min: 0.0001 cd/m2, max: 1000.0000 cd/m2

Audio #1
ID : 2
Format : DTS
Format/Info : Digital Theater Systems
Codec ID : A_DTS
Duration : 2 h 22 min
Bit rate mode : Constant
Bit rate : 1 413 kb/s
Channel(s) : 6 channels
Channel positions : Front: L C R, Side: L R, LFE
Sampling rate : 48.0 kHz
Bit depth : 24 bits
Compression mode : Lossy
Stream size : 1.40 GiB
Language : Turkish

Audio #2
ID : 3
Format : E-AC-3
Format/Info : Enhanced Audio Coding 3
Codec ID : A_EAC3
Duration : 2 h 22 min
Bit rate mode : Constant
Bit rate : 640 kb/s
Channel(s) : 6 channels
Channel positions : Front: L C R, Side: L R, LFE
Sampling rate : 48.0 kHz
Frame rate : 187.500 FPS (256 spf)
Compression mode : Lossy
Stream size : 653 MiB
Title : 640kb/s Dolby Digital Plus
Language : Turkish


Audio #3
ID : 4
Format : Atmos / TrueHD
Codec ID : A_TRUEHD
Duration : 2 h 22 min
Bit rate mode : Variable
Bit rate : 4 271 kb/s
Maximum bit rate : 7 926 kb/s
Channel(s) : Object Based / 8 channels
Channel positions : Object Based / Front: L C R, Side: L R, Back: L R, LFE
Sampling rate : / 48.0 kHz
Frame rate : 1 200.000 FPS (40 spf)
Compression mode : Lossless
Delay relative to video : 500 ms
Stream size : 4.24 GiB
Language : English


Text #1
ID : 5
Format : UTF-8
Codec ID : S_TEXT/UTF8
Codec ID/Info : UTF-8 Plain Text
Duration : 2 h 18 min
Bit rate : 57 b/s
Count of elements : 1566
Stream size : 58.4 KiB (0%)
Title : TAM ALTYAZI
Language : Turkish
CBox BBCode:
[B] [color=crimson] [Büyük][[/Büyük] Forum Konusu [Büyük]][/Büyük] [/color] [CENTER] ;brtfixlogo [br] [Büyük] [color=#000000] 👉 [/color] [url=https://brtfix.com/filmler/4k-ultra-hd/5070-forrest-gump-1994-2160p-bluray-4k-ultra-hd-hevc-hdr-turkce-dublaj.html] [yeşil] [color=#FFFF00] Forrest Gump 1994 2160p BluRay 4K Ultra HD HEVC HDR Türkçe Dublaj [/color] [/yeşil] [/url] [color=#000000] 👈 [/color] [/Büyük] [/B] [/CENTER]
Destek İçin Yorum Yapmayı Unutmayın :)

Yapılan Yorumlar Yönetici Tarafından Onaylandıkdan Sonra Gözükür...

BilgiYorum Ekleyebilmeniz için Sitemize Kayıt Olmanız Gerekmektedir.

Özel Mesajlar

Yazışmalarınız