» » » Suyun Sesi - The Shape of Water 2017 2160p BluRay 4K Ultra HD HDR Türkçe Dublaj İndir

Paylaş Suyun Sesi - The Shape of Water 2017 2160p BluRay 4K Ultra HD HDR Türkçe Dublaj İndir

Filmin Adı:
Suyun Sesi - The Shape of Water 2017 2160p BluRay 4K Ultra HD HDR Türkçe Dublaj İndir
Beğeni:

Oy kullanan 5 Kişi

Vizyon Tarihi:
14 Şubat 2018 (İngiltere)
Yılı - Ülke:
ABD
Film Kategorisi:
Film Türü:
Macera, Dram, Fantezi
Yönetmen:
Guillermo del Toro
Film Süresi:
2s 3Dakika
IMDB PUANI:
Konusu:
Soğuk savaş dönemi Amerika'da geçen hikayede, Elisa yalnız bir kızdır. Sessiz, rutin bir hayatı olan Elisa, gizli ve yüksek güvenlikli bir devlet laboratuvarında temizlikçi olarak çalışır. Elisa iş arkadaşı Zelda ile devletin yaptığı gizli bir deneyi keşfeder ve suda hapsedilen insansı bir yaratığı acımasız deneyden kurtarmaya çalışırlar.
Ekleyen:
RedMonster
BrtFix Özel Üyelik

Suyun Sesi - The Shape of Water 2017 2160p BluRay 4K Ultra HD HDR Türkçe Dublaj İndir

The Shape of Water (2017) 2160p BluRay 4K UHD HDR

🎥 Görüntü Kalitesi : 2160p (HDR)Dosya Boyutu : 18.87 GB



The Shape of Water (2017) 2160p BluRay 4K UHD HEVC

🎥 Görüntü Kalitesi : 2160p (HEVC)Dosya Boyutu : 51.93 GB






BrtFix Özel Üyelik
Suyun Sesi - The Shape of Water 2017 2160p BluRay 4K Ultra HD HDR Türkçe Dublaj İndirSuyun Sesi - The Shape of Water 2017 2160p BluRay 4K Ultra HD HDR Türkçe Dublaj İndirSuyun Sesi - The Shape of Water 2017 2160p BluRay 4K Ultra HD HDR Türkçe Dublaj İndir
BrtFix.Com
Video
ID : 1
Format : HEVC
Format/Info : High Efficiency Video Coding
Format profile : Main [email protected]@High
Codec ID : V_MPEGH/ISO/HEVC
Duration : 2 h 3 min
Bit rate : 16.1 Mb/s
Width : 3 840 pixels
Height : 2 076 pixels
Display aspect ratio : 1.85:1
Frame rate mode : Constant
Frame rate : 23.976 (24000/1001) FPS
Color space : YUV
Chroma subsampling : 4:2:0 (Type 2)
Bit depth : 10 bits
Bits/(Pixel*Frame) : 0.084
Stream size : 13.9 GiB (79%)
Writing library : x265 2.6+49-7219376de42a:[Windows][GCC 6.3.0][64 bit] 10bit
Encoding settings : cpuid=1173503 / frame-threads=4 / numa-pools=16 / wpp / no-pmode / no-pme / no-psnr / no-ssim / log-level=2 / input-csp=1 / input-res=3840x2076 / interlace=0 / total-frames=177409 / level-idc=51 / high-tier=1 / uhd-bd=0 / ref=4 / no-allow-non-conformance / repeat-headers / annexb / aud / hrd / info / hash=0 / no-temporal-layers / no-open-gop / min-keyint=24 / keyint=240 / gop-lookahead=0 / bframes=4 / b-adapt=2 / b-pyramid / bframe-bias=0 / rc-lookahead=25 / lookahead-slices=4 / scenecut=40 / radl=0 / no-intra-refresh / ctu=64 / min-cu-size=8 / rect / no-amp / max-tu-size=32 / tu-inter-depth=1 / tu-intra-depth=1 / limit-tu=0 / rdoq-level=2 / dynamic-rd=0.00 / no-ssim-rd / signhide / no-tskip / nr-intra=0 / nr-inter=0 / no-constrained-intra / no-strong-intra-smoothing / max-merge=3 / limit-refs=3 / limit-modes / me=3 / subme=3 / merange=57 / temporal-mvp / weightp / no-weightb / no-analyze-src-pics / deblock=-3:-3 / no-sao / no-sao-non-deblock / rd=4 / no-early-skip / rskip / no-fast-intra / no-tskip-fast / no-cu-lossless / no-b-intra / no-splitrd-skip / rdpenalty=0 / psy-rd=2.00 / psy-rdoq=1.00 / no-rd-refine / no-lossless / cbqpoffs=0 / crqpoffs=0 / rc=crf / crf=17.0 / qcomp=0.60 / qpstep=4 / stats-write=0 / stats-read=0 / vbv-maxrate=160000 / vbv-bufsize=160000 / vbv-init=0.9 / crf-max=0.0 / crf-min=0.0 / ipratio=1.40 / pbratio=1.30 / aq-mode=1 / aq-strength=1.00 / cutree / zone-count=0 / no-strict-cbr / qg-size=32 / no-rc-grain / qpmax=69 / qpmin=0 / no-const-vbv / sar=1 / overscan=0 / videoformat=5 / range=0 / colorprim=9 / transfer=16 / colormatrix=9 / chromaloc=1 / chromaloc-top=2 / chromaloc-bottom=2 / display-window=0 / master-display=G(13250,34500)B(7500,3000)R(34000,16000)WP(15635,16450)L(10000000,50) / max-cll=0,0 / min-luma=0 / max-luma=1023 / log2-max-poc-lsb=8 / vui-timing-info / vui-hrd-info / slices=1 / opt-qp-pps / opt-ref-list-length-pps / no-multi-pass-opt-rps / scenecut-bias=0.05 / no-opt-cu-delta-qp / no-aq-motion / hdr / hdr-opt / no-dhdr10-opt / analysis-reuse-level=5 / scale-factor=0 / refine-intra=0 / refine-inter=0 / refine-mv=0 / no-limit-sao / ctu-info=0 / no-lowpass-dct / refine-mv-type=0 / copy-pic=1
Default : Yes
Forced : No
Color range : Limited
Color primaries : BT.2020
Transfer characteristics : SMPTE ST 2084
Matrix coefficients : BT.2020 non-constant
Mastering display color primar : R: x=0.680000 y=0.320000, G: x=0.265000 y=0.690000, B: x=0.150000 y=0.060000, White point: x=0.312700 y=0.329000
Mastering display luminance : min: 0.0050 cd/m2, max: 1000.0000 cd/m2

Audio #1
ID : 2
Format : AC-3
Format/Info : Audio Coding 3
Format settings, Endianness : Big
Codec ID : A_AC3
Duration : 2 h 3 min
Bit rate mode : Constant
Bit rate : 448 kb/s
Channel(s) : 6 channels
Channel positions : Front: L C R, Side: L R, LFE
Sampling rate : 48.0 kHz
Frame rate : 31.250 FPS (1536 SPF)
Bit depth : 16 bits
Compression mode : Lossy
Stream size : 395 MiB (2%)
Language : Turkish
Service kind : Complete Main
Default : Yes
Forced : Yes

Audio #2
ID : 3
Format : DTS
Format/Info : Digital Theater Systems
Format profile : MA / Core
Mode : 16
Format settings, Endianness : Big
Codec ID : A_DTS
Duration : 2 h 3 min
Bit rate mode : Variable / Constant
Bit rate : 3 840 kb/s / 1 509 kb/s
Channel(s) : 6 channels
Channel positions : Front: L C R, Side: L R, LFE
Sampling rate : 48.0 kHz
Frame rate : 93.750 FPS (512 SPF)
Bit depth : 24 bits
Compression mode : Lossless / Lossy
Stream size : 3.30 GiB (19%)
Language : English
Default : No
Forced : No

Text #1
ID : 4
Format : UTF-8
Codec ID : S_TEXT/UTF8
Codec ID/Info : UTF-8 Plain Text
Duration : 1 h 58 min
Bit rate : 3 b/s
Count of elements : 178
Stream size : 3.01 KiB (0%)
Title : FORCED
Language : Turkish
Default : Yes
Forced : Yes

Text #2
ID : 5
Format : PGS
Muxing mode : zlib
Codec ID : S_HDMV/PGS
Codec ID/Info : Picture based subtitle format used on BDs/HD-DVDs
Duration : 2 h 1 min
Bit rate : 8 347 b/s
Count of elements : 2788
Stream size : 7.25 MiB (0%)
Title : TAM
Language : Turkish
Default : No
Forced : No
CBox BBCode:
[B] [color=crimson] [Büyük][[/Büyük] Forum Konusu [Büyük]][/Büyük] [/color] [CENTER] ;brtfixlogo [br] [Büyük] [color=#000000] 👉 [/color] [url=https://brtfix.com/filmler/4k-ultra-hd/5446-suyun-sesi-the-shape-of-water-2017-2160p-bluray-4k-ultra-hd-hdr-turkce-dublaj-indir.html] [yeşil] [color=#FFFF00] Suyun Sesi - The Shape of Water 2017 2160p BluRay 4K Ultra HD HDR Türkçe Dublaj İndir [/color] [/yeşil] [/url] [color=#000000] 👈 [/color] [/Büyük] [/B] [/CENTER]
LÜTFEN YORUM ATARAK FİLM, DİZİ, OYUN İSTEĞİNDE BULUNMAYINIZ.

Yapılan yorumlar yönetici tarafından onaylandıkdan sonra yayınlanacaktır.

  1. kujariya
    emeğe saygı teşekkürler
    • 17 Nisan 2018 18:38
BilgiYorum Ekleyebilmeniz için Sitemize Kayıt Olmanız Gerekmektedir.

Özel Mesajlar

Yazışmalarınız