» » » Kara Panter - Black Panther 2018 2160p BluRay 4K Ultra HD HEVC HDR SDR Türkçe Dublaj

Paylaş Kara Panter - Black Panther 2018 2160p BluRay 4K Ultra HD HEVC HDR SDR Türkçe Dublaj

Filmin Adı:
Kara Panter - Black Panther 2018 2160p BluRay 4K Ultra HD HEVC HDR SDR Türkçe Dublaj
Beğeni:

Oy kullanan 43 Kişi

Vizyon Tarihi:
13 Şubat 2018 (İngiltere)
Yılı - Ülke:
ABD
Film Kategorisi:
Film Türü:
Aksiyon, Macera, Bilim Kurgu
Yönetmen:
Ryan Coogler
Film Süresi:
2s 14Dakika
IMDB PUANI:
Konusu:
Babasının ölümünden sonra, Wakanda kralı genç T'Challa tahta geçmek ve kral olarak hak ettiği yere gelmek için soyutlanmış bir yüksek teknoloji Afrika ülkesi olan yurduna döner. Ama güçlü bir düşman yeniden ortaya çıkıp Wakanda'nın ve tüm dünyanın kaderini tehlikeye atan zorlu bir ihtilafa düşünce T'Challa'nın kral ve Black Panther olarak hırsı test edilir. İhanet ve tehlikeyle karşı karşıya kalınca, düşmanlarını yenmek ve halkının ve yaşam tarzlarının güvenliğini sağlamak için Black Panther'in bütün gücünü serbest bırakmak zorunda kalır.
Ekleyen:
RedMonster
BrtFix Özel Üyelik

Kara Panter - Black Panther 2018 2160p BluRay 4K Ultra HD HEVC HDR SDR Türkçe Dublaj

Black Panther (2018) 2160p 4K UHD 10 Bit HDR

🎥 Görüntü Kalitesi : 2160p (HDR)Dosya Boyutu : 49.55 GB



Black Panther (2018) 2160p 4K UHD 10 Bit SDR

🎥 Görüntü Kalitesi : 2160p (SDR)Dosya Boyutu : 28.50 GB






BrtFix Özel Üyelik
Kara Panter - Black Panther 2018 2160p BluRay 4K Ultra HD HEVC HDR SDR Türkçe DublajKara Panter - Black Panther 2018 2160p BluRay 4K Ultra HD HEVC HDR SDR Türkçe DublajKara Panter - Black Panther 2018 2160p BluRay 4K Ultra HD HEVC HDR SDR Türkçe Dublaj
BrtFix.Com
Video
ID : 1
Format : HEVC
Format/Info : High Efficiency Video Coding
Format profile : Main [email protected]@High
Codec ID : V_MPEGH/ISO/HEVC
Duration : 2 h 14 min
Bit rate : 44.3 Mb/s
Width : 3 840 pixels
Height : 2 160 pixels
Display aspect ratio : 16:9
Frame rate mode : Constant
Frame rate : 23.976 (24000/1001) FPS
Color space : YUV
Chroma subsampling : 4:2:0 (Type 2)
Bit depth : 10 bits
Bits/(Pixel*Frame) : 0.223
Stream size : 41.7 GiB (90%)
Default : Yes
Forced : No
Color range : Limited
Color primaries : BT.2020
Transfer characteristics : SMPTE ST 2084
Matrix coefficients : BT.2020 non-constant
Mastering display color primar : R: x=0.680000 y=0.320000, G: x=0.265000 y=0.690000, B: x=0.150000 y=0.060000, White point: x=0.312700 y=0.329000
Mastering display luminance : min: 0.0001 cd/m2, max: 1000.0000 cd/m2

Audio #1
ID : 2
Format : AC-3
Format/Info : Audio Coding 3
Mode extension : CM (complete main)
Format settings, Endianness : Big
Codec ID : A_AC3
Duration : 2 h 14 min
Bit rate mode : Constant
Bit rate : 384 kb/s
Channel(s) : 6 channels
Channel positions : Front: L C R, Side: L R, LFE
Sampling rate : 48.0 kHz
Frame rate : 31.250 FPS (1536 spf)
Bit depth : 16 bits
Compression mode : Lossy
Delay relative to video : 799 ms
Stream size : 369 MiB (1%)
Language : Turkish
Default : Yes
Forced : Yes

Audio #2
ID : 3
Format : Atmos / TrueHD
Codec ID : A_TRUEHD
Duration : 2 h 14 min
Bit rate mode : Variable
Bit rate : 4 327 kb/s
Maximum bit rate : 7 134 kb/s
Channel(s) : Object Based / 8 channels
Channel positions : Object Based / Front: L C R, Side: L R, Back: L R, LFE
Sampling rate : / 48.0 kHz
Frame rate : 1 200.000 FPS (40 spf)
Compression mode : Lossless
Delay relative to video : -1 ms
Stream size : 4.07 GiB (9%)
Language : English
Default : No
Forced : No

Text #1
ID : 4
Format : UTF-8
Codec ID : S_TEXT/UTF8
Codec ID/Info : UTF-8 Plain Text
Duration : 2 h 14 min
Bit rate : 44 b/s
Count of elements : 1368
Stream size : 43.9 KiB (0%)
Title : TAM ALTYAZI
Language : Turkish
Default : Yes
Forced : No

Text #2
ID : 5
Format : UTF-8
Codec ID : S_TEXT/UTF8
Codec ID/Info : UTF-8 Plain Text
Duration : 25 s 100 ms
Bit rate : 31 b/s
Count of elements : 5
Stream size : 98.0 Bytes (0%)
Default : No
Forced : No
CBox BBCode:
[B] [color=crimson] [Büyük][[/Büyük] Forum Konusu [Büyük]][/Büyük] [/color] [CENTER] ;brtfixlogo [br] [Büyük] [color=#000000] 👉 [/color] [url=https://brtfix.com/filmler/4k-ultra-hd/5587-kara-panter-black-panther-2018-2160p-bluray-4k-ultra-hd-hevc-hdr-sdr-turkce-dublaj.html] [yeşil] [color=#FFFF00] Kara Panter - Black Panther 2018 2160p BluRay 4K Ultra HD HEVC HDR SDR Türkçe Dublaj [/color] [/yeşil] [/url] [color=#000000] 👈 [/color] [/Büyük] [/B] [/CENTER]
LÜTFEN YORUM ATARAK FİLM, DİZİ, OYUN İSTEĞİNDE BULUNMAYINIZ.

Yapılan yorumlar yönetici tarafından onaylandıkdan sonra yayınlanacaktır.

BilgiYorum Ekleyebilmeniz için Sitemize Kayıt Olmanız Gerekmektedir.

Özel Mesajlar

Yazışmalarınız