» » » Tatil Zamanı 2015 2160p WEB-Rip 4K Ultra HD HDR Türkçe Dublaj İndir

Paylaş Tatil Zamanı 2015 2160p WEB-Rip 4K Ultra HD HDR Türkçe Dublaj İndir

Filmin Adı:
Tatil Zamanı 2015 2160p WEB-Rip 4K Ultra HD HDR Türkçe Dublaj İndir
Beğeni:

Oy kullanan 1 Kişi

Vizyon Tarihi:
21 Ağustos 2015 (İngiltere)
Yılı - Ülke:
ABD
Film Kategorisi:
Film Türü:
Macera, Komedi
Yönetmen:
John Francis Daley, Jonathan Goldstein
Film Süresi:
1s 39Dakika
IMDB PUANI:
Konusu:
Artık bir yetişkin ve aile babası olan Rusty Griswold (Ed Helms), babasının ayak izlerini takip ederek, karısı Debbie (Christina Applegate) ve iki oğluna tatil sürprizi yapar; Aile, ülkeyi baştan başa turlayarak, Amerika’nın “en gözde aile eğlence parkı” Walley World’e doğru yola çıkarlar. Chevy Chase ve Beverly D’Angelo da, klasik komedi filmleri “Vacation”lardaki Clark ve Ellen Griswold rollerinde tekrar karşımıza çıkıyorlar
Ekleyen:
RedMonster
BrtFix Özel Üyelik

Tatil Zamanı 2015 2160p WEB-Rip 4K Ultra HD HDR Türkçe Dublaj İndir

Vacation (2015) 2160p 4K UHD 10 BİT HDR

🎥 Görüntü Kalitesi : 2160p (HDR)Dosya Boyutu : 25.17 GB





BrtFix Özel Üyelik
Tatil Zamanı 2015 2160p WEB-Rip 4K Ultra HD HDR Türkçe Dublaj İndirTatil Zamanı 2015 2160p WEB-Rip 4K Ultra HD HDR Türkçe Dublaj İndirTatil Zamanı 2015 2160p WEB-Rip 4K Ultra HD HDR Türkçe Dublaj İndir
BrtFix.Com
Video
ID : 1
Format : HEVC
Format/Info : High Efficiency Video Coding
Format profile : Main [email protected]@Main
Codec ID : V_MPEGH/ISO/HEVC
Duration : 1 h 38 min
Bit rate : 30.3 Mb/s
Width : 3 840 pixels
Height : 1 600 pixels
Display aspect ratio : 2.40:1
Frame rate mode : Constant
Frame rate : 23.976 (24000/1001) FPS
Color space : YUV
Chroma subsampling : 4:2:0
Bit depth : 10 bits
Bits/(Pixel*Frame) : 0.205
Stream size : 20.9 GiB (89%)
Default : Yes
Forced : No
Color range : Limited
Color primaries : BT.2020
Transfer characteristics : SMPTE ST 2084
Matrix coefficients : BT.2020 non-constant
Mastering display color primar : R: x=0.680000 y=0.320000, G: x=0.265000 y=0.690000, B: x=0.150000 y=0.060000, White point: x=0.312700 y=0.329000
Mastering display luminance : min: 0.0050 cd/m2, max: 1000.0000 cd/m2

Audio #1
ID : 2
Format : AC-3
Format/Info : Audio Coding 3
Mode extension : CM (complete main)
Format settings, Endianness : Big
Codec ID : A_AC3
Duration : 1 h 39 min
Bit rate mode : Constant
Bit rate : 192 kb/s
Channel(s) : 2 channels
Channel positions : Front: L R
Sampling rate : 48.0 kHz
Frame rate : 31.250 FPS (1536 spf)
Bit depth : 16 bits
Compression mode : Lossy
Delay relative to video : 12 ms
Stream size : 136 MiB (1%)
Language : Turkish
Default : Yes
Forced : Yes

Audio #2
ID : 3
Format : DTS
Format/Info : Digital Theater Systems
Format profile : MA / Core
Mode : 16
Format settings, Endianness : Big
Codec ID : A_DTS
Duration : 1 h 39 min
Bit rate mode : Variable / Constant
Bit rate : 3 454 kb/s / 1 509 kb/s
Channel(s) : 6 channels
Channel positions : Front: L C R, Side: L R, LFE
Sampling rate : 48.0 kHz
Frame rate : 93.750 FPS (512 spf)
Bit depth : 24 bits
Compression mode : Lossless / Lossy
Delay relative to video : 3 ms
Stream size : 2.39 GiB (10%)
Language : English
Default : No
Forced : No

Text #1
ID : 4
Format : UTF-8
Codec ID : S_TEXT/UTF8
Codec ID/Info : UTF-8 Plain Text
Duration : 1 h 35 min
Bit rate : 79 b/s
Count of elements : 1384
Stream size : 55.3 KiB (0%)
Title : TAM ALTYAZI
Language : Turkish
Default : No
Forced : No

Text #2
ID : 5
Format : UTF-8
Codec ID : S_TEXT/UTF8
Codec ID/Info : UTF-8 Plain Text
Duration : 25 s 100 ms
Bit rate : 31 b/s
Count of elements : 5
Stream size : 98.0 Bytes (0%)
Default : Yes
Forced : No
CBox BBCode:
[B] [color=crimson] [Büyük][[/Büyük] Forum Konusu [Büyük]][/Büyük] [/color] [CENTER] ;brtfixlogo [br] [Büyük] [color=#000000] 👉 [/color] [url=https://brtfix.com/filmler/4k-ultra-hd/5591-tatil-zamani-2015-2160p-web-rip-4k-ultra-hd-hdr-turkce-dublaj-indir.html] [yeşil] [color=#FFFF00] Tatil Zamanı 2015 2160p WEB-Rip 4K Ultra HD HDR Türkçe Dublaj İndir [/color] [/yeşil] [/url] [color=#000000] 👈 [/color] [/Büyük] [/B] [/CENTER]
Destek İçin Yorum Yapmayı Unutmayın :)

Yapılan Yorumlar Yönetici Tarafından Onaylandıkdan Sonra Gözükür...

BilgiYorum Ekleyebilmeniz için Sitemize Kayıt Olmanız Gerekmektedir.

Özel Mesajlar

Yazışmalarınız