» » » Özgürlüğün Elli Tonu 2018 2160p BluRay 4K Ultra HD HEVC HDR Türkçe Dublaj

Paylaş Özgürlüğün Elli Tonu 2018 2160p BluRay 4K Ultra HD HEVC HDR Türkçe Dublaj

Filmin Adı:
Özgürlüğün Elli Tonu 2018 2160p BluRay 4K Ultra HD HEVC HDR Türkçe Dublaj
Beğeni:

Oy kullanan 12 Kişi

Vizyon Tarihi:
9 Şubat 2018 (İngiltere)
Yılı - Ülke:
ABD
Film Kategorisi:
Film Türü:
Dram, Romantik, Gerilim
Yönetmen:
James Foley
Film Süresi:
1s 45Dakika
IMDB PUANI:
Konusu:
Jamie Dornan ve Dakota Johnson, dünya çapında çok satan Elli Ton fenomeninin üçüncü bölümünden uyarlanan Özgürlüğün Elli Tonu filminde Christian Grey ve Anastasia Steele rolüyle geri dönüyor. Özgürlüğün Elli Tonu, Karanlığın Elli Tonu’nun yönetmeni James Foley (Fear, House of Cards) tarafından yönetiliyor ve yapımcıları da bir kez daha Michael De Luca, Dana Brunetti ve Marcus Viscidi ile kültürler üstü, gişe rekortmeni serinin yaratıcısı E L James. James’in romanından uyarlanan senaryonun yazarı Niall Leonard.
Ekleyen:
RedMonster
BrtFix Özel Üyelik

Özgürlüğün Elli Tonu - Fifty Shades Freed 2018

Fifty Shades Freed (2018) 2160p 4K UHD 10 Bit HDR

🎥 Görüntü Kalitesi : 2160p (HDR)Dosya Boyutu : 54.28 GB






BrtFix Özel Üyelik
Özgürlüğün Elli Tonu 2018 2160p BluRay 4K Ultra HD HEVC HDR Türkçe DublajÖzgürlüğün Elli Tonu 2018 2160p BluRay 4K Ultra HD HEVC HDR Türkçe DublajÖzgürlüğün Elli Tonu 2018 2160p BluRay 4K Ultra HD HEVC HDR Türkçe Dublaj
BrtFix.Com
Video
ID : 1
Format : HEVC
Format/Info : High Efficiency Video Coding
Format profile : Main [email protected]@High
Codec ID : V_MPEGH/ISO/HEVC
Duration : 1 h 45 min
Bit rate : 65.1 Mb/s
Width : 3 840 pixels
Height : 2 160 pixels
Display aspect ratio : 16:9
Frame rate mode : Constant
Frame rate : 23.976 (24000/1001) FPS
Color space : YUV
Chroma subsampling : 4:2:0 (Type 2)
Bit depth : 10 bits
Bits/(Pixel*Frame) : 0.327
Stream size : 47.9 GiB (95%)
Language : English
Default : Yes
Forced : No
Color range : Limited
Color primaries : BT.2020
Transfer characteristics : SMPTE ST 2084
Matrix coefficients : BT.2020 non-constant
Mastering display color primar : R: x=0.680000 y=0.320000, G: x=0.265000 y=0.690000, B: x=0.150000 y=0.060000, White point: x=0.312700 y=0.329000
Mastering display luminance : min: 0.0050 cd/m2, max: 1000.0000 cd/m2
Maximum Content Light Level : 952 cd/m2
Maximum Frame-Average Light Le : 200 cd/m2

Audio #1
ID : 2
Format : AC-3
Format/Info : Audio Coding 3
Mode extension : CM (complete main)
Format settings, Endianness : Big
Codec ID : A_AC3
Duration : 1 h 45 min
Bit rate mode : Constant
Bit rate : 384 kb/s
Channel(s) : 6 channels
Channel positions : Front: L C R, Side: L R, LFE
Sampling rate : 48.0 kHz
Frame rate : 31.250 FPS (1536 spf)
Bit depth : 16 bits
Compression mode : Lossy
Delay relative to video : 24 ms
Stream size : 289 MiB (1%)
Language : Turkish
Default : Yes
Forced : Yes

Audio #2
ID : 3
Format : DTS
Format/Info : Digital Theater Systems
Format profile : X / MA / Core
Mode : 16
Format settings, Endianness : Big
Codec ID : A_DTS
Duration : 1 h 45 min
Bit rate mode : Variable / Variable / Constant
Bit rate : 3 278 kb/s / 3 278 kb/s / 1 509 kb/s
Channel(s) : Object Based / 8 channels / 6 channels
Channel positions : Object Based / Front: L C R, Side: L R, Back: L R, LFE / Front: L C R, Side: L R, LFE
Sampling rate : / 48.0 kHz / 48.0 kHz
Frame rate : 93.750 FPS (512 spf)
Bit depth : / 24 bits / 24 bits
Compression mode : / Lossless / Lossy
Stream size : 2.41 GiB (5%)
Language : English
Default : No
Forced : No

Text
ID : 4
Format : UTF-8
Codec ID : S_TEXT/UTF8
Codec ID/Info : UTF-8 Plain Text
Duration : 25 s 100 ms
Bit rate : 31 b/s
Count of elements : 5
Stream size : 98.0 Bytes (0%)
Default : Yes
Forced : No
CBox BBCode:
[B] [color=crimson] [Büyük][[/Büyük] Forum Konusu [Büyük]][/Büyük] [/color] [CENTER] ;brtfixlogo [br] [Büyük] [color=#000000] 👉 [/color] [url=https://brtfix.com/filmler/4k-ultra-hd/5592-ozgurlugun-elli-tonu-2018-2160p-bluray-4k-ultra-hd-hevc-hdr-turkce-dublaj.html] [yeşil] [color=#FFFF00] Özgürlüğün Elli Tonu 2018 2160p BluRay 4K Ultra HD HEVC HDR Türkçe Dublaj [/color] [/yeşil] [/url] [color=#000000] 👈 [/color] [/Büyük] [/B] [/CENTER]
LÜTFEN YORUM ATARAK FİLM, DİZİ, OYUN İSTEĞİNDE BULUNMAYINIZ.

Yapılan yorumlar yönetici tarafından onaylandıkdan sonra yayınlanacaktır.

BilgiYorum Ekleyebilmeniz için Sitemize Kayıt Olmanız Gerekmektedir.

Özel Mesajlar

Yazışmalarınız