» » » The Matrix 1999 2160p BluRay 4K Ultra HD HEVC HDR SDR Türkçe Dublaj

Paylaş The Matrix 1999 2160p BluRay 4K Ultra HD HEVC HDR SDR Türkçe Dublaj

Filmin Adı:
The Matrix 1999 2160p BluRay 4K Ultra HD HEVC HDR SDR Türkçe Dublaj
Beğeni:

Oy kullanan 61 Kişi

Vizyon Tarihi:
11 Haziran 1999 (İngiltere)
Yılı - Ülke:
ABD
Film Kategorisi:
Film Türü:
Aksiyon, Bilim Kurgu
Yönetmen:
Lana Wachowski, Lilly Wachowski
Film Süresi:
2s 16Dakika
IMDB PUANI:
Konusu:
Bir bilgisayar programcısı olan Thomas Anderson aynı zamanda Neo nickname'li çok usta bir "hacker" dır. Ancak siyah takım elbiseli ve gözlüklü adamların yakın takibindedir. Bu takibin nedenini ise karşılaşacağı Morpheus'dan öğrenecektir. Neo, birden kendini Morpheus'un anlattıklarına güvenmek zorunda kaldığı büyük bir komplonun içinde bulacaktır. İçinde yaşadığımızı sandığımız bu dünya tamamiyle aldatıcıdır. Tüm insanlık aslında uzaydan gelen yaratıkların köleleridir. Neo, Trinity ve Morpheus'un da yardımıyla kendilerini bu düzeni yıkmaya adayan bir grubun içine katılır.
Ekleyen:
RedMonster
BrtFix Özel Üyelik

The Matrix 1999 2160p BluRay 4K Ultra HD HEVC HDR SDR Türkçe Dublaj

The Matrix (1999) 2160p 4K UHD HEVC

🎥 Görüntü Kalitesi : 2160p (HEVC - HDR)Dosya Boyutu : 54.73 GB



The Matrix (1999) 2160p 4K UHD 10 Bit HDR

🎥 Görüntü Kalitesi : 2160p (HDR)Dosya Boyutu : 36.18 GB






BrtFix Özel Üyelik
The Matrix 1999 2160p BluRay 4K Ultra HD HEVC HDR SDR Türkçe DublajThe Matrix 1999 2160p BluRay 4K Ultra HD HEVC HDR SDR Türkçe DublajThe Matrix 1999 2160p BluRay 4K Ultra HD HEVC HDR SDR Türkçe Dublaj
BrtFix.Com
Video
ID : 1
Format : HEVC
Format/Info : High Efficiency Video Coding
Format profile : Main [email protected]@High
Codec ID : V_MPEGH/ISO/HEVC
Duration : 2 h 16 min
Bit rate : 48.8 Mb/s
Width : 3 840 pixels
Height : 2 160 pixels
Display aspect ratio : 16:9
Frame rate mode : Constant
Frame rate : 23.976 (24000/1001) FPS
Color space : YUV
Chroma subsampling : 4:2:0 (Type 2)
Bit depth : 10 bits
Bits/(Pixel*Frame) : 0.246
Stream size : 46.5 GiB (91%)
Default : Yes
Forced : No
Color range : Limited
Color primaries : BT.2020
Transfer characteristics : SMPTE ST 2084
Matrix coefficients : BT.2020 non-constant
Mastering display color primar : R: x=0.708000 y=0.292000, G: x=0.170000 y=0.797000, B: x=0.131000 y=0.046000, White point: x=0.312700 y=0.329000
Mastering display luminance : min: 0.0020 cd/m2, max: 1000.0000 cd/m2
Maximum Content Light Level : 992 cd/m2
Maximum Frame-Average Light Le : 518 cd/m2

Audio #1
ID : 2
Format : AC-3
Format/Info : Audio Coding 3
Mode : Dolby Digital
Format settings, Endianness : Big
Codec ID : A_AC3
Duration : 2 h 16 min
Bit rate mode : Constant
Bit rate : 192 kb/s
Channel(s) : 2 channels
Channel positions : Front: L R
Sampling rate : 48.0 kHz
Frame rate : 31.250 FPS (1536 SPF)
Bit depth : 16 bits
Compression mode : Lossy
Stream size : 187 MiB (0%)
Language : Turkish
Service kind : Complete Main
Default : Yes
Forced : Yes

Audio #2
ID : 3
Format : TrueHD
Format profile : TrueHD+Atmos / TrueHD
Codec ID : A_TRUEHD
Duration : 2 h 16 min
Bit rate mode : Variable
Bit rate : 4 420 kb/s
Maximum bit rate : 7 794 kb/s
Channel(s) : Object Based / 8 channels
Channel positions : Object Based / Front: L C R, Side: L R, Back: L R, LFE
Sampling rate : / 48.0 kHz
Frame rate : 1 200.000 FPS (40 SPF)
Compression mode : Lossless
Stream size : 4.21 GiB (8%)
Language : English
Default : No
Forced : No

Text #1
ID : 4
Format : PGS
Muxing mode : zlib
Codec ID : S_HDMV/PGS
Codec ID/Info : Picture based subtitle format used on BDs/HD-DVDs
Duration : 2 h 15 min
Bit rate : 9 579 b/s
Count of elements : 2604
Stream size : 9.28 MiB (0%)
Language : Turkish
Default : No
Forced : No

Text #2
ID : 5
Format : PGS
Muxing mode : zlib
Codec ID : S_HDMV/PGS
Codec ID/Info : Picture based subtitle format used on BDs/HD-DVDs
Duration : 2 h 7 min
Bit rate : 123 b/s
Count of elements : 42
Stream size : 115 KiB (0%)
Language : Turkish
Default : No
Forced : No
CBox BBCode:
[B] [color=crimson] [Büyük][[/Büyük] Forum Konusu [Büyük]][/Büyük] [/color] [CENTER] ;brtfixlogo [br] [Büyük] [color=#000000] 👉 [/color] [url=https://brtfix.com/filmler/4k-ultra-hd/5617-the-matrix-1999-2160p-bluray-4k-ultra-hd-hevc-hdr-sdr-turkce-dublaj.html] [yeşil] [color=#FFFF00] The Matrix 1999 2160p BluRay 4K Ultra HD HEVC HDR SDR Türkçe Dublaj [/color] [/yeşil] [/url] [color=#000000] 👈 [/color] [/Büyük] [/B] [/CENTER]
LÜTFEN YORUM ATARAK FİLM, DİZİ, OYUN İSTEĞİNDE BULUNMAYINIZ.

Yapılan yorumlar yönetici tarafından onaylandıkdan sonra yayınlanacaktır.

  1. JohnnyCage35
    2. ve 3. filmleri de aynı kalitede yükleyebilirseniz süper olur box set olarak 4K HDR...
    • 27 May 2018 18:51
    1. Medicus
      2 ve 3 çıkarsa ekleriz...
      BrtFix & TürkLeech
      • 27 May 2018 19:45
BilgiYorum Ekleyebilmeniz için Sitemize Kayıt Olmanız Gerekmektedir.

Özel Mesajlar