» » » Phantom Thread 2017 2160p BluRay 4K Ultra HD HEVC HDR Türkçe Dublaj 4K İndir

Paylaş Phantom Thread 2017 2160p BluRay 4K Ultra HD HEVC HDR Türkçe Dublaj 4K İndir

Filmin Adı:
Phantom Thread 2017 2160p BluRay 4K Ultra HD HEVC HDR Türkçe Dublaj 4K İndir
Beğeni:

Oy kullanan 80 Kişi

Vizyon Tarihi:
2 Şubat 2018 (İngiltere)
Yılı - Ülke:
ABD, İngiltere
Film Kategorisi:
Film Türü:
Dram, Romantik
Yönetmen:
Paul Thomas Anderson
Film Süresi:
2s 10Dakika
IMDB PUANI:
Konusu:
Savaştan sonra 1950’lerin Londra’sındaki ünlü terzi Reynolds Woodcock (Daniel Day-Lewis) ve kızkardeşi Cyril (Lesley Manville), Woodcock Ailesi’nin farklı tarzıyla İngiliz modasının merkezinde yer almaktadır. Hayatına girip çıkan kadınlardan esinlenen Woodcock’un hayatı genç, güçlü iradeli bir kadın olan Alma (Vicky Krieps) ile karşılaşmasıyla değişir ve bu kadın onun ilham kaynağı ve sevgilisi olarak hayatında önemli bir yere gelir. Eskiden sıkı bir kontrol ve plan dahilinde olan Woodcock’ın hayatı bir anda bozulmuştur.
Ekleyen:
RedMonster
BrtFix Özel Üyelik

Phantom Thread 2017 2160p BluRay 4K Ultra HD HEVC HDR Türkçe Dublaj 4K İndir

Phantom Thread (2017) 2160p 4K UHD 10 Bit HDR

🎥 Görüntü Kalitesi : 2160p (x265 - HDR)Dosya Boyutu : 51.72 GB






BrtFix Özel Üyelik
Phantom Thread 2017 2160p BluRay 4K Ultra HD HEVC HDR Türkçe Dublaj 4K İndirPhantom Thread 2017 2160p BluRay 4K Ultra HD HEVC HDR Türkçe Dublaj 4K İndirPhantom Thread 2017 2160p BluRay 4K Ultra HD HEVC HDR Türkçe Dublaj 4K İndir
BrtFix.Com
Video
ID : 1
Format : HEVC
Format/Info : High Efficiency Video Coding
Format profile : Main [email protected]@High
Codec ID : V_MPEGH/ISO/HEVC
Duration : 2 h 10 min
Bit rate : 46.6 Mb/s
Width : 3 840 pixels
Height : 2 076 pixels
Display aspect ratio : 1.85:1
Frame rate mode : Constant
Frame rate : 23.976 (24000/1001) FPS
Color space : YUV
Chroma subsampling : 4:2:0 (Type 2)
Bit depth : 10 bits
Bits/(Pixel*Frame) : 0.244
Stream size : 42.3 GiB (88%)
Writing library : x265 2.7+346-69aafa6d70ad:[Windows][GCC 7.3.0][64 bit] 10bit
Encoding settings : cpuid=1176575 / frame-threads=6 / numa-pools=32 / wpp / no-pmode / no-pme / no-psnr / no-ssim / log-level=2 / input-csp=1 / input-res=3840x2076 / interlace=0 / total-frames=187191 / level-idc=51 / high-tier=1 / uhd-bd=0 / ref=4 / no-allow-non-conformance / repeat-headers / annexb / aud / hrd / info / hash=0 / no-temporal-layers / no-open-gop / min-keyint=24 / keyint=240 / gop-lookahead=0 / bframes=4 / b-adapt=2 / b-pyramid / bframe-bias=0 / rc-lookahead=25 / lookahead-slices=4 / scenecut=40 / radl=0 / no-intra-refresh / ctu=64 / min-cu-size=8 / rect / no-amp / max-tu-size=32 / tu-inter-depth=1 / tu-intra-depth=1 / limit-tu=0 / rdoq-level=2 / dynamic-rd=0.00 / no-ssim-rd / signhide / no-tskip / nr-intra=0 / nr-inter=0 / no-constrained-intra / no-strong-intra-smoothing / max-merge=3 / limit-refs=3 / limit-modes / me=3 / subme=3 / merange=57 / temporal-mvp / weightp / no-weightb / no-analyze-src-pics / deblock=-3:-3 / no-sao / no-sao-non-deblock / rd=4 / no-early-skip / rskip / no-fast-intra / no-tskip-fast / no-cu-lossless / no-b-intra / no-splitrd-skip / rdpenalty=0 / psy-rd=2.00 / psy-rdoq=1.00 / no-rd-refine / no-lossless / cbqpoffs=0 / crqpoffs=0 / rc=crf / crf=17.0 / qcomp=0.60 / qpstep=4 / stats-write=0 / stats-read=0 / vbv-maxrate=160000 / vbv-bufsize=160000 / vbv-init=0.9 / crf-max=0.0 / crf-min=0.0 / ipratio=1.40 / pbratio=1.30 / aq-mode=1 / aq-strength=1.00 / cutree / zone-count=0 / no-strict-cbr / qg-size=32 / no-rc-grain / qpmax=69 / qpmin=0 / no-const-vbv / sar=1 / overscan=0 / videoformat=5 / range=0 / colorprim=9 / transfer=16 / colormatrix=9 / chromaloc=1 / chromaloc-top=2 / chromaloc-bottom=2 / display-window=0 / master-display=G(13250,34500)B(7500,3000)R(34000,16000)WP(15635,16450)L(10000000,50) / max-cll=637,75 / min-luma=0 / max-luma=1023 / log2-max-poc-lsb=8 / vui-timing-info / vui-hrd-info / slices=1 / no-opt-qp-pps / no-opt-ref-list-length-pps / no-multi-pass-opt-rps / scenecut-bias=0.05 / no-opt-cu-delta-qp / no-aq-motion / hdr / hdr-opt / no-dhdr10-opt / no-idr-recovery-sei / analysis-reuse-level=5 / scale-factor=0 / refine-intra=0 / refine-inter=0 / refine-mv=0 / no-limit-sao / ctu-info=0 / no-lowpass-dct / refine-mv-type=0 / copy-pic=1 / max-ausize-factor=1.0 / no-dynamic-refine / no-single-sei
Default : Yes
Forced : No
Color range : Limited
Color primaries : BT.2020
Transfer characteristics : SMPTE ST 2084
Matrix coefficients : BT.2020 non-constant
Mastering display color primar : R: x=0.680000 y=0.320000, G: x=0.265000 y=0.690000, B: x=0.150000 y=0.060000, White point: x=0.312700 y=0.329000
Mastering display luminance : min: 0.0050 cd/m2, max: 1000.0000 cd/m2
Maximum Content Light Level : 637 cd/m2
Maximum Frame-Average Light Le : 75 cd/m2

Audio #1
ID : 2
Format : AC-3
Format/Info : Audio Coding 3
Mode extension : CM (complete main)
Format settings, Endianness : Big
Codec ID : A_AC3
Duration : 2 h 10 min
Bit rate mode : Constant
Bit rate : 192 kb/s
Channel(s) : 2 channels
Channel positions : Front: L R
Sampling rate : 48.0 kHz
Frame rate : 31.250 FPS (1536 spf)
Bit depth : 16 bits
Compression mode : Lossy
Stream size : 179 MiB (0%)
Language : Turkish
Default : Yes
Forced : Yes

Audio #2
ID : 3
Format : DTS
Format/Info : Digital Theater Systems
Format profile : X / MA / Core
Mode : 16
Format settings, Endianness : Big
Codec ID : A_DTS
Duration : 2 h 10 min
Bit rate mode : Variable / Variable / Constant
Bit rate : 6 228 kb/s / 6 228 kb/s / 1 509 kb/s
Channel(s) : Object Based / 8 channels / 6 channels
Channel positions : Object Based / Front: L C R, Side: L R, Back: L R, LFE / Front: L C R, Side: L R, LFE
Sampling rate : / 48.0 kHz / 48.0 kHz
Frame rate : 93.750 FPS (512 spf)
Bit depth : / 24 bits / 24 bits
Compression mode : / Lossless / Lossy
Stream size : 5.66 GiB (12%)
Language : English
Default : No
Forced : No

Text
ID : 4
Format : UTF-8
Codec ID : S_TEXT/UTF8
Codec ID/Info : UTF-8 Plain Text
Duration : 25 s 100 ms
Bit rate : 31 b/s
Count of elements : 5
Stream size : 98.0 Bytes (0%)
Default : Yes
Forced : No
CBox BBCode:
[B] [color=crimson] [Büyük][[/Büyük] Forum Konusu [Büyük]][/Büyük] [/color] [CENTER] ;brtfixlogo [br] [Büyük] [color=#000000] 👉 [/color] [url=https://brtfix.com/filmler/4k-ultra-hd/5673-phantom-thread-2160p-bluray-4k-ultra-hd-hevc-hdr-turkce-dublaj-4k-indir.html] [yeşil] [color=#FFFF00] Phantom Thread 2017 2160p BluRay 4K Ultra HD HEVC HDR Türkçe Dublaj 4K İndir [/color] [/yeşil] [/url] [color=#000000] 👈 [/color] [/Büyük] [/B] [/CENTER]
LÜTFEN YORUM ATARAK FİLM, DİZİ, OYUN İSTEĞİNDE BULUNMAYINIZ.

Yapılan yorumlar yönetici tarafından onaylandıkdan sonra yayınlanacaktır.

BilgiYorum Ekleyebilmeniz için Sitemize Kayıt Olmanız Gerekmektedir.

Özel Mesajlar