» » » Haydut Kral - Outlaw King 2018 Türkçe Dublaj 4K UHD WEBRip HDR 2160p

Paylaş Haydut Kral - Outlaw King 2018 Türkçe Dublaj 4K UHD WEBRip HDR 2160p

Filmin Adı:
Haydut Kral - Outlaw King 2018 Türkçe Dublaj 4K UHD WEBRip HDR 2160p
Beğeni:

Oy kullanan 19 Kişi

Vizyon Tarihi:
9 Kasım 2018 (İngiltere)
Yılı - Ülke:
İngiltere, ABD
Film Kategorisi:
Film Türü:
Aksiyon, Biyografi, Dram, Geçmiş, War
Yönetmen:
David Mackenzie
Film Süresi:
2s 1Dakika
IMDB PUANI:
Konusu:
14. yüzyılın İskoçyası’nda yaşanan gerçek bir hikayeyi konu alan "Outlaw King", İngiltere kralı I. Edward’ın Orta Çağ İskoçyası’nı işgali sırasında, Robert the Bruce’un verdiği mücadelenin ve fedakarlıklarının hikayesini anlatıyor. Robert, 1300'lü yılların başlarında İskoç bağımsızlığı için İngiltere'ye karşı onurlu bir savaş verir. Bu mücadelesinin sonunda da İskoçya Kralı olmaya hak kazanır. Ancak I. Robert'ın gözü tahtta ve altında değildir. Olabilecek ağır sonuçlarına rağmen Robert İskoç tacını giydikten sonra bir grup hırslı askeri toplayarak acımasız krala ve onun dengesiz oğlu olan Galler Prensi’ne karşı savaşmaya başlar. Bruce kendisininkine oranla daha büyük ve daha iyi donanımlı olan işgalci İngiliz ordusunu yenmek için kurnazlığını ve cesaretini kullanmak zorundadır...
Ekleyen:
RedMonster
BrtFix Özel Üyelik


Haydut Kral - Outlaw King (2018) 2160p 4K UHD 10 Bit HDR

🎥 Görüntü Kalitesi : 2160p (HDR)Dosya Boyutu : 16 GB






BrtFix Özel Üyelik
Haydut Kral - Outlaw King 2018 Türkçe Dublaj 4K UHD WEBRip HDR 2160pHaydut Kral - Outlaw King 2018 Türkçe Dublaj 4K UHD WEBRip HDR 2160pHaydut Kral - Outlaw King 2018 Türkçe Dublaj 4K UHD WEBRip HDR 2160p
BrtFix.Com
Video
ID : 1
Format : HEVC
Format/Info : High Efficiency Video Coding
Commercial name : HDR10
Format profile : Main [email protected]@High
Codec ID : V_MPEGH/ISO/HEVC
Duration : 2 h 1 min
Bit rate : 18.1 Mb/s
Width : 3 840 pixels
Height : 1 604 pixels
Display aspect ratio : 2.40:1
Frame rate mode : Constant
Frame rate : 24.000 FPS
Color space : YUV
Chroma subsampling : 4:2:0 (Type 2)
Bit depth : 10 bits
Bits/(Pixel*Frame) : 0.122
Stream size : 15.3 GiB (96%)
Writing library : x265 2.8+68-fa57fa584898:[Linux][GCC 7.3.0][64 bit] 10bit
Encoding settings : cpuid=1111039 / frame-threads=5 / wpp / no-pmode / no-pme / no-psnr / no-ssim / log-level=2 / input-csp=1 / input-res=3840x1604 / interlace=0 / total-frames=0 / level-idc=51 / high-tier=1 / uhd-bd=0 / ref=4 / no-allow-non-conformance / repeat-headers / annexb / no-aud / no-hrd / info / hash=0 / no-temporal-layers / open-gop / min-keyint=24 / keyint=250 / gop-lookahead=0 / bframes=11 / b-adapt=2 / b-pyramid / bframe-bias=0 / rc-lookahead=25 / lookahead-slices=4 / scenecut=40 / radl=0 / no-intra-refresh / ctu=64 / min-cu-size=8 / rect / no-amp / max-tu-size=32 / tu-inter-depth=1 / tu-intra-depth=1 / limit-tu=0 / rdoq-level=2 / dynamic-rd=0.00 / no-ssim-rd / signhide / no-tskip / nr-intra=0 / nr-inter=0 / no-constrained-intra / strong-intra-smoothing / max-merge=3 / limit-refs=3 / limit-modes / me=2 / subme=6 / merange=57 / temporal-mvp / weightp / no-weightb / no-analyze-src-pics / deblock=-3:-3 / no-sao / no-sao-non-deblock / rd=4 / no-early-skip / no-rskip / no-fast-intra / no-tskip-fast / no-cu-lossless / no-b-intra / no-splitrd-skip / rdpenalty=0 / psy-rd=4.00 / psy-rdoq=10.00 / no-rd-refine / no-lossless / cbqpoffs=0 / crqpoffs=0 / rc=crf / crf=21.0 / qcomp=0.60 / qpstep=1 / stats-write=0 / stats-read=0 / vbv-maxrate=160000 / vbv-bufsize=160000 / vbv-init=0.9 / crf-max=0.0 / crf-min=0.0 / ipratio=1.25 / pbratio=1.20 / aq-mode=3 / aq-strength=0.65 / no-cutree / zone-count=0 / no-strict-cbr / qg-size=32 / rc-grain / qpmax=69 / qpmin=0 / const-vbv / sar=1 / overscan=0 / videoformat=5 / range=0 / colorprim=9 / transfer=16 / colormatrix=9 / chromaloc=1 / chromaloc-top=2 / chromaloc-bottom=2 / display-window=0 / master-display=G(13250,34500)B(7500,3000)R(34000,16000)WP(15635,16450)L(40000000,50) / max-cll=700,249 / min-luma=0 / max-luma=1023 / log2-max-poc-lsb=8 / vui-timing-info / vui-hrd-info / slices=1 / no-opt-qp-pps / no-opt-ref-list-length-pps / no-multi-pass-opt-rps / scenecut-bias=0.05 / no-opt-cu-delta-qp / no-aq-motion / hdr / hdr-opt / no-dhdr10-opt / no-idr-recovery-sei / analysis-reuse-level=5 / scale-factor=0 / refine-intra=0 / refine-inter=0 / refine-mv=0 / no-limit-sao / ctu-info=0 / no-lowpass-dct / refine-mv-type=0 / copy-pic=1 / max-ausize-factor=1.0 / no-dynamic-refine / no-single-sei
Default : Yes
Forced : No
Color range : Limited
Color primaries : BT.2020
Transfer characteristics : PQ
Matrix coefficients : BT.2020 non-constant
Mastering display color primar : BT.709
Mastering display luminance : min: 0.0050 cd/m2, max: 4000 cd/m2
Maximum Content Light Level : 700 cd/m2
Maximum Frame-Average Light Le : 249 cd/m2

Audio #1
ID : 2
Format : AC-3
Format/Info : Audio Coding 3
Codec ID : A_AC3
Duration : 2 h 1 min
Bit rate mode : Constant
Bit rate : 384 kb/s
Channel(s) : 6 channels
Channel positions : Front: L C R, Side: L R, LFE
Sampling rate : 48.0 kHz
Frame rate : 31.250 FPS (1536 SPF)
Bit depth : 16 bits
Compression mode : Lossy
Stream size : 334 MiB (2%)
Language : Turkish
Service kind : Complete Main
Default : Yes
Forced : Yes

Audio #2
ID : 3
Format : E-AC-3
Format/Info : Enhanced Audio Coding 3
Format profile : E-AC-3+Atmos / E-AC-3
Codec ID : A_EAC3
Duration : 2 h 1 min
Bit rate mode : Constant
Bit rate : 448 kb/s
Channel(s) : 15 objects / 6 channels
Channel positions : 15 objects / Front: L C R, Side: L R, LFE
Sampling rate : 48.0 kHz
Frame rate : 187.500 FPS (256 SPF)
Compression mode : Lossy
Stream size : 388 MiB (2%)
Language : English
Service kind : Complete Main
Default : No
Forced : No
CBox BBCode:
[B] [color=crimson] [Büyük][[/Büyük] Forum Konusu [Büyük]][/Büyük] [/color] [CENTER] ;brtfixlogo [br] [Büyük] [color=#000000] 👉 [/color] [url=https://brtfix.com/filmler/4k-ultra-hd/5981-haydut-kral-outlaw-king-2018-turkce-dublaj-4k-uhd-hdr-2160p.html] [yeşil] [color=#FFFF00] Haydut Kral - Outlaw King 2018 Türkçe Dublaj 4K UHD WEBRip HDR 2160p [/color] [/yeşil] [/url] [color=#000000] 👈 [/color] [/Büyük] [/B] [/CENTER]
LÜTFEN YORUM ATARAK FİLM, DİZİ, OYUN İSTEĞİNDE BULUNMAYINIZ.

Yapılan yorumlar yönetici tarafından onaylandıkdan sonra yayınlanacaktır.

BilgiYorum Ekleyebilmeniz için Sitemize Kayıt Olmanız Gerekmektedir.

Özel Mesajlar