» » » İnanılmaz Aile 2 - Incredibles 2 2018 Türkçe Dublaj 4K UHD HDR 2160p

Paylaş İnanılmaz Aile 2 - Incredibles 2 2018 Türkçe Dublaj 4K UHD HDR 2160p

Filmin Adı:
İnanılmaz Aile 2 - Incredibles 2 2018 Türkçe Dublaj 4K UHD HDR 2160p
Beğeni:

Oy kullanan 9 Kişi

Vizyon Tarihi:
22 Ağustos 2018 (Türkiye)
Yılı - Ülke:
ABD
Film Kategorisi:
Film Türü:
Animasyon, Aksiyon, Macera, Komedi, Aile, Bilim Kurgu
Yönetmen:
Brad Bird
Film Süresi:
1s 58Dakika
IMDB PUANI:
Konusu:
İnanılmaz Aile 2, süper güçlere sahip olan bir ailenin atıldığı maceraları konu ediyor. Süper güçlere sahip aile suçla savaşmaya devam ederken, süper kahramanların yasal olmaması sıkıntı yaratmaktadır. Ancak bu konudaki umut ışığı, ailenin Elastigirl lakaplı annesi Helen'dır. Helen süper kahramanların önemini kanıtlamak üzere dünyayı kurtarmakla meşgulken, evdeki işleyiş, Violet ve Dash ile birlikte evde kalan Bob'un sorumluluğundadır. Küçük Jack-Jack'in de süper güçlerinin olduğunun ortaya çıkmasıyla birlikte, evin kontrolünü sağlamak iyice zorlaşır. Ancak yeni bir kötü dahinin incelikli planı dünyayı tehdit etmeye başlayınca, aile ve Frozone yeniden birlikte çalışmanın bir yolunu bulmalı ve tehditi savuşturmayı başarmalıdır...
Ekleyen:
RedMonster
BrtFix Özel Üyelik


İnanılmaz Aile 2 - Incredibles 2 2018 Türkçe Dublaj 4K UHD 2160p

🎥 Görüntü Kalitesi : 2160p (HEVC)Dosya Boyutu : 40.1 GB




İnanılmaz Aile 2 - Incredibles 2 2018 Türkçe Dublaj 4K UHD HDR 2160p

🎥 Görüntü Kalitesi : 2160p (HDR)Dosya Boyutu : 14.4 GB






BrtFix Özel Üyelik
İnanılmaz Aile 2 - Incredibles 2 2018 Türkçe Dublaj 4K UHD HDR 2160p
İnanılmaz Aile 2 - Incredibles 2 2018 Türkçe Dublaj 4K UHD HDR 2160p
İnanılmaz Aile 2 - Incredibles 2 2018 Türkçe Dublaj 4K UHD HDR 2160p BrtFix.Com
General : E:\HDNLEN541\BrtFix.Com_Incredibles.2.2018.BluRay.2160p.HEVC.x264.DuaL.mkv
Format : Matroska at 48.8 Mb/s
Length : 40.2 GiB for 1 s 57dk 51s 555 ms

Video #0 : HEVC at 41.3 Mb/s
Aspect : 3840 x 2160 (1.778) at 23.976 fps

Audio #0 : TrueHD at 7 004 kb/s
Infos : Object Based / 8 kanal, / 48.0 kHz
Language : en

Audio #1 : AC-3 at 384 kb/s
Infos : 6 kanal, 48.0 kHz
Language : tr

Text #0 : UTF-8
Language : tr


Video
ID : 1
Format : HEVC
Format/Info : High Efficiency Video Coding
Commercial name : HDR10
Format profile : Main [email protected]@High
Codec ID : V_MPEGH/ISO/HEVC
Duration : 1 h 57 min
Bit rate : 8 795 kb/s
Width : 3 840 pixels
Height : 1 608 pixels
Display aspect ratio : 2.40:1
Frame rate mode : Constant
Frame rate : 23.976 (24000/1001) FPS
Color space : YUV
Chroma subsampling : 4:2:0 (Type 2)
Bit depth : 10 bits
Bits/(Pixel*Frame) : 0.059
Stream size : 7.24 GiB (54%)
Writing library : x265 2.8+58-d17bc7714ed2:[Windows][GCC 8.2.0][64 bit] 10bit
Encoding settings : cpuid=1111039 / frame-threads=5 / numa-pools=36 / wpp / no-pmode / no-pme / no-psnr / no-ssim / log-level=2 / input-csp=1 / input-res=3840x1608 / interlace=0 / total-frames=169514 / level-idc=51 / high-tier=1 / uhd-bd=0 / ref=4 / no-allow-non-conformance / repeat-headers / annexb / aud / hrd / info / hash=0 / no-temporal-layers / no-open-gop / min-keyint=24 / keyint=240 / gop-lookahead=0 / bframes=4 / b-adapt=2 / b-pyramid / bframe-bias=0 / rc-lookahead=25 / lookahead-slices=4 / scenecut=40 / radl=0 / no-intra-refresh / ctu=64 / min-cu-size=8 / rect / no-amp / max-tu-size=32 / tu-inter-depth=1 / tu-intra-depth=1 / limit-tu=0 / rdoq-level=2 / dynamic-rd=0.00 / no-ssim-rd / signhide / no-tskip / nr-intra=0 / nr-inter=0 / no-constrained-intra / no-strong-intra-smoothing / max-merge=3 / limit-refs=3 / limit-modes / me=3 / subme=3 / merange=57 / temporal-mvp / weightp / no-weightb / no-analyze-src-pics / deblock=-3:-3 / no-sao / no-sao-non-deblock / rd=4 / no-early-skip / rskip / no-fast-intra / no-tskip-fast / no-cu-lossless / no-b-intra / no-splitrd-skip / rdpenalty=0 / psy-rd=2.00 / psy-rdoq=1.00 / no-rd-refine / no-lossless / cbqpoffs=0 / crqpoffs=0 / rc=crf / crf=17.0 / qcomp=0.60 / qpstep=4 / stats-write=0 / stats-read=0 / vbv-maxrate=160000 / vbv-bufsize=160000 / vbv-init=0.9 / crf-max=0.0 / crf-min=0.0 / ipratio=1.40 / pbratio=1.30 / aq-mode=1 / aq-strength=1.00 / cutree / zone-count=0 / no-strict-cbr / qg-size=32 / no-rc-grain / qpmax=69 / qpmin=0 / no-const-vbv / sar=1 / overscan=0 / videoformat=5 / range=0 / colorprim=9 / transfer=16 / colormatrix=9 / chromaloc=1 / chromaloc-top=2 / chromaloc-bottom=2 / display-window=0 / master-display=G(13250,34500)B(7500,3000)R(34000,16000)WP(15635,16450)L(10000000,0) / max-cll=0,0 / min-luma=0 / max-luma=1023 / log2-max-poc-lsb=8 / vui-timing-info / vui-hrd-info / slices=1 / no-opt-qp-pps / no-opt-ref-list-length-pps / no-multi-pass-opt-rps / scenecut-bias=0.05 / no-opt-cu-delta-qp / no-aq-motion / hdr / hdr-opt / no-dhdr10-opt / no-idr-recovery-sei / analysis-reuse-level=5 / scale-factor=0 / refine-intra=0 / refine-inter=0 / refine-mv=0 / no-limit-sao / ctu-info=0 / no-lowpass-dct / refine-mv-type=0 / copy-pic=1 / max-ausize-factor=1.0 / no-dynamic-refine / no-single-sei
Default : Yes
Forced : No
Color range : Limited
Color primaries : BT.2020
Transfer characteristics : PQ
Matrix coefficients : BT.2020 non-constant
Mastering display color primar : BT.709
Mastering display luminance : min: 0.0000 cd/m2, max: 1000 cd/m2

Audio #1
ID : 2
Format : AC-3
Format/Info : Audio Coding 3
Codec ID : A_AC3
Duration : 1 h 57 min
Bit rate mode : Constant
Bit rate : 384 kb/s
Channel(s) : 6 channels
Channel positions : Front: L C R, Side: L R, LFE
Sampling rate : 48.0 kHz
Frame rate : 31.250 FPS (1536 SPF)
Bit depth : 16 bits
Compression mode : Lossy
Stream size : 324 MiB (2%)
Language : Turkish
Service kind : Complete Main
Default : Yes
Forced : No

Audio #2
ID : 3
Format : TrueHD
Format profile : TrueHD+Atmos / TrueHD
Codec ID : A_TRUEHD
Duration : 1 h 57 min
Bit rate mode : Variable
Bit rate : 7 005 kb/s
Maximum bit rate : 8 580 kb/s
Channel(s) : Object Based / 8 channels
Channel positions : Object Based / Front: L C R, Side: L R, Back: L R, LFE
Sampling rate : / 48.0 kHz
Frame rate : 1 200.000 FPS (40 SPF)
Compression mode : Lossless
Stream size : 5.77 GiB (43%)
Language : English
Default : No
Forced : No
CBox BBCode:
[B] [color=crimson] [Büyük][[/Büyük] Forum Konusu [Büyük]][/Büyük] [/color] [CENTER] ;brtfixlogo [br] [Büyük] [color=#000000] 👉 [/color] [url=https://brtfix.com/filmler/4k-ultra-hd/5989-inanilmaz-aile-2-incredibles-2-2018-turkce-dublaj-4k-uhd-hdr-2160p.html] [yeşil] [color=#FFFF00] İnanılmaz Aile 2 - Incredibles 2 2018 Türkçe Dublaj 4K UHD HDR 2160p [/color] [/yeşil] [/url] [color=#000000] 👈 [/color] [/Büyük] [/B] [/CENTER]
LÜTFEN YORUM ATARAK FİLM, DİZİ, OYUN İSTEĞİNDE BULUNMAYINIZ.

Yapılan yorumlar yönetici tarafından onaylandıkdan sonra yayınlanacaktır.

  1. RedMonster
    draznilka draznilka draznilka 
    • 14 Kasım 2018 23:54
BilgiYorum Ekleyebilmeniz için Sitemize Kayıt Olmanız Gerekmektedir.

Özel Mesajlar