» » » The Christmas Chronicles 2018 Türkçe Dublaj 4K UHD HDR 2160p

Paylaş The Christmas Chronicles 2018 Türkçe Dublaj 4K UHD HDR 2160p

Filmin Adı:
The Christmas Chronicles 2018 Türkçe Dublaj 4K UHD HDR 2160p
Beğeni:

Oy kullanan 10 Kişi

Vizyon Tarihi:
22 Kasım 2018 (ABD)
Yılı - Ülke:
ABD
Film Kategorisi:
Film Türü:
Macera, Komedi, Aile, Fantezi
Yönetmen:
Clay Kaytis
Film Süresi:
1s 44Dakika
IMDB PUANI:
Konusu:
The Christmas Chronicle, gizlice Noel Baba’nın kızağına binen iki kardeşin macera dolu yolculuğunu konu ediyor. Tüm çocukların heyecanla beklediği güne az bir zaman kalmıştır. Kate ve ağabeyi Teddy’nin de en büyük hayali Noel Baba’yı görebilmektir. Kardeşler Noel Baba’yı görmenin yanı sıra onu kameraya çekmeyi de planlar. Noel arifesinde Noel Baba’nın gelişini gözetleyen Kate ve Teddy gizlice kızağa biner. Çoğu çocuğun hayalini yaşayan kardeşler oldukça heyecanlıdır. Fakat bu macera dolu yolculuk birçok soruna neden olur. Noel Baba’nın kaza yapmasına neden olan kardeşler Noel’i büyük bir tehlikeye atar. Onlar ne yapıp edip her şeyi yoluna koymalı, Noel’i kurtarmalıdır. Kate ve Tedd, Noel Baba ve sadık cinleri ile birlikte Noel’i kurtarmak için zorlu bir maceraya atılır...
Ekleyen:
Medicus
BrtFix Özel Üyelik

The Christmas Chronicles 2018 Türkçe Dublaj 4K UHD HDR 2160p



The Christmas Chronicles 2018 Türkçe Dublaj 4K UHD HDR 2160p

🎥 Dosya Türü : .mkvDosya Boyutu : 19.0 GB






BrtFix Özel Üyelik
The Christmas Chronicles 2018 Türkçe Dublaj 4K UHD HDR 2160p
The Christmas Chronicles 2018 Türkçe Dublaj 4K UHD HDR 2160p
The Christmas Chronicles 2018 Türkçe Dublaj 4K UHD HDR 2160p BrtFix.Com
Video
ID : 1
Format : HEVC
Format/Info : High Efficiency Video Coding
Commercial name : HDR10
Format profile : Main [email protected]@High
Codec ID : V_MPEGH/ISO/HEVC
Duration : 1 h 43 min
Bit rate : 25.3 Mb/s
Width : 3 840 pixels
Height : 2 076 pixels
Display aspect ratio : 1.85:1
Frame rate mode : Constant
Frame rate : 24.000 FPS
Color space : YUV
Chroma subsampling : 4:2:0 (Type 2)
Bit depth : 10 bits
Bits/(Pixel*Frame) : 0.132
Stream size : 18.3 GiB (96%)
Title : BrtFix.Com
Writing library : x265 2.9+8-27d8424c799d:[Windows][MSVC 1915][64 bit] 10bit
Encoding settings : cpuid=1111039 / frame-threads=4 / numa-pools=28 / wpp / no-pmode / no-pme / no-psnr / no-ssim / log-level=2 / input-csp=1 / input-res=3840x2076 / interlace=0 / total-frames=148926 / level-idc=51 / high-tier=1 / uhd-bd=0 / ref=4 / no-allow-non-conformance / repeat-headers / annexb / aud / hrd / info / hash=0 / no-temporal-layers / no-open-gop / min-keyint=24 / keyint=240 / gop-lookahead=0 / bframes=4 / b-adapt=2 / b-pyramid / bframe-bias=0 / rc-lookahead=25 / lookahead-slices=4 / scenecut=40 / radl=0 / no-intra-refresh / ctu=64 / min-cu-size=8 / rect / no-amp / max-tu-size=32 / tu-inter-depth=1 / tu-intra-depth=1 / limit-tu=0 / rdoq-level=2 / dynamic-rd=0.00 / no-ssim-rd / signhide / no-tskip / nr-intra=0 / nr-inter=0 / no-constrained-intra / no-strong-intra-smoothing / max-merge=3 / limit-refs=3 / limit-modes / me=3 / subme=3 / merange=57 / temporal-mvp / weightp / no-weightb / no-analyze-src-pics / deblock=-3:-3 / no-sao / no-sao-non-deblock / rd=4 / no-early-skip / rskip / no-fast-intra / no-tskip-fast / no-cu-lossless / no-b-intra / no-splitrd-skip / rdpenalty=0 / psy-rd=2.00 / psy-rdoq=1.00 / no-rd-refine / no-lossless / cbqpoffs=0 / crqpoffs=0 / rc=crf / crf=16.0 / qcomp=0.80 / qpstep=4 / stats-write=0 / stats-read=0 / vbv-maxrate=160000 / vbv-bufsize=160000 / vbv-init=0.9 / crf-max=0.0 / crf-min=0.0 / ipratio=1.40 / pbratio=1.30 / aq-mode=1 / aq-strength=1.00 / cutree / zone-count=0 / no-strict-cbr / qg-size=32 / no-rc-grain / qpmax=69 / qpmin=0 / no-const-vbv / sar=1 / overscan=0 / videoformat=5 / range=0 / colorprim=9 / transfer=16 / colormatrix=9 / chromaloc=1 / chromaloc-top=2 / chromaloc-bottom=2 / display-window=0 / master-display=G(13250,34500)B(7500,3000)R(34000,16000)WP(15635,16450)L(10000000,1) / max-cll=1166,647 / min-luma=0 / max-luma=1023 / log2-max-poc-lsb=8 / vui-timing-info / vui-hrd-info / slices=1 / no-opt-qp-pps / no-opt-ref-list-length-pps / no-multi-pass-opt-rps / scenecut-bias=0.05 / no-opt-cu-delta-qp / no-aq-motion / hdr / hdr-opt / no-dhdr10-opt / no-idr-recovery-sei / analysis-reuse-level=5 / scale-factor=0 / refine-intra=0 / refine-inter=0 / refine-mv=0 / no-limit-sao / ctu-info=0 / no-lowpass-dct / refine-mv-type=0 / copy-pic=1 / max-ausize-factor=1.0 / no-dynamic-refine / no-single-sei
Default : Yes
Forced : No
Color range : Limited
Color primaries : BT.2020
Transfer characteristics : PQ
Matrix coefficients : BT.2020 non-constant
Mastering display color primar : BT.709
Mastering display luminance : min: 0.0001 cd/m2, max: 1000 cd/m2
Maximum Content Light Level : 1166 cd/m2
Maximum Frame-Average Light Le : 647 cd/m2

Audio #1
ID : 2
Format : AC-3
Format/Info : Audio Coding 3
Codec ID : A_AC3
Duration : 1 h 43 min
Bit rate mode : Constant
Bit rate : 384 kb/s
Channel(s) : 6 channels
Channel positions : Front: L C R, Side: L R, LFE
Sampling rate : 48.0 kHz
Frame rate : 31.250 FPS (1536 SPF)
Bit depth : 16 bits
Compression mode : Lossy
Delay relative to video : 24 ms
Stream size : 284 MiB (1%)
Language : English
Service kind : Complete Main
Default : No
Forced : No

Audio #2
ID : 3
Format : E-AC-3
Format/Info : Enhanced Audio Coding 3
Codec ID : A_EAC3
Duration : 1 h 44 min
Bit rate mode : Constant
Bit rate : 640 kb/s
Channel(s) : 6 channels
Channel positions : Front: L C R, Side: L R, LFE
Sampling rate : 48.0 kHz
Frame rate : 187.500 FPS (256 SPF)
Compression mode : Lossy
Stream size : 478 MiB (2%)
Language : Turkish
Service kind : Complete Main
Default : Yes
Forced : No
CBox BBCode:
[B] [color=crimson] [Büyük][[/Büyük] Forum Konusu [Büyük]][/Büyük] [/color] [CENTER] ;brtfixlogo [br] [Büyük] [color=#000000] 👉 [/color] [url=https://brtfix.com/filmler/4k-ultra-hd/6051-the-christmas-chronicles-2018-turkce-dublaj-4k-uhd-hdr-2160p.html] [yeşil] [color=#FFFF00] The Christmas Chronicles 2018 Türkçe Dublaj 4K UHD HDR 2160p [/color] [/yeşil] [/url] [color=#000000] 👈 [/color] [/Büyük] [/B] [/CENTER]
LÜTFEN YORUM ATARAK FİLM, DİZİ, OYUN İSTEĞİNDE BULUNMAYINIZ.

Yapılan yorumlar yönetici tarafından onaylandıkdan sonra yayınlanacaktır.

BilgiYorum Ekleyebilmeniz için Sitemize Kayıt Olmanız Gerekmektedir.

Özel Mesajlar