» » » Uzun Kabus - Slender Man 2018 2160p WEB-Rip 4K Ultra HD Türkçe Dublaj İndir

Paylaş Uzun Kabus - Slender Man 2018 2160p WEB-Rip 4K Ultra HD Türkçe Dublaj İndir

Filmin Adı:
Uzun Kabus - Slender Man 2018 2160p WEB-Rip 4K Ultra HD Türkçe Dublaj İndir
Beğeni:

Oy kullanan 9 Kişi

Vizyon Tarihi:
12 Ekim 2018 (Türkiye)
Yılı - Ülke:
ABD
Film Kategorisi:
Film Türü:
Korku, Gizem, Gerilim
Yönetmen:
Sylvain White
Film Süresi:
1s 33Dakika
IMDB PUANI:
Konusu:
İnce, uzun, yüzü olmayan, sürekli takım elbise giyen ve genellikle çocukları hedef alan doğaüstü karakter Slender Man'i odağına alan filmin yönetmen koltuğunda “Stomp the Yard”ın yönetmeni Sylvain White oturuyor. Oyuncu kadrosunda Joey King, Julia Goldani Telles, Annalise Basso, Jaz Sinclair, Javier Botet, Kevin Chapman, Alex Fitzalan gibi isimlerin yer aldığı filmin senaryosunu David Birke kaleme alıyor.
Ekleyen:
RedMonster
BrtFix Özel Üyelik

Uzun Kabus - Slender Man 2018 2160p WEB-Rip 4K Ultra HD Türkçe Dublaj İndir

Uzun Kabus - Slender Man (2018) 2160p 4K UHD 10 BİT HDR

🎥 Görüntü Kalitesi : 2160p ( HDR)Dosya Boyutu : 13.4 GB








BrtFix Özel Üyelik
Uzun Kabus - Slender Man 2018 2160p WEB-Rip 4K Ultra HD Türkçe Dublaj İndirUzun Kabus - Slender Man 2018 2160p WEB-Rip 4K Ultra HD Türkçe Dublaj İndirUzun Kabus - Slender Man 2018 2160p WEB-Rip 4K Ultra HD Türkçe Dublaj İndir
BrtFix.Com
Video
ID : 1
Format : HEVC
Format/Info : High Efficiency Video Coding
Commercial name : HDR10
Format profile : Main [email protected]@High
Codec ID : V_MPEGH/ISO/HEVC
Duration : 1 h 33 min
Bit rate : 16.4 Mb/s
Width : 3 840 pixels
Height : 1 600 pixels
Display aspect ratio : 2.40:1
Frame rate mode : Constant
Frame rate : 23.976 (24000/1001) FPS
Color space : YUV
Chroma subsampling : 4:2:0 (Type 2)
Bit depth : 10 bits
Bits/(Pixel*Frame) : 0.111
Stream size : 10.6 GiB (85%)
Writing library : x265 2.9+2-7e978ed93d60:[Windows][MSVC 1915][64 bit] 10bit
Encoding settings : cpuid=1111039 / frame-threads=4 / numa-pools=28 / wpp / no-pmode / no-pme / no-psnr / no-ssim / log-level=2 / input-csp=1 / input-res=3840x1600 / interlace=0 / total-frames=134002 / level-idc=51 / high-tier=1 / uhd-bd=0 / ref=4 / no-allow-non-conformance / repeat-headers / annexb / aud / hrd / info / hash=0 / no-temporal-layers / no-open-gop / min-keyint=24 / keyint=240 / gop-lookahead=0 / bframes=4 / b-adapt=2 / b-pyramid / bframe-bias=0 / rc-lookahead=25 / lookahead-slices=4 / scenecut=40 / radl=0 / no-intra-refresh / ctu=64 / min-cu-size=8 / rect / no-amp / max-tu-size=32 / tu-inter-depth=1 / tu-intra-depth=1 / limit-tu=0 / rdoq-level=2 / dynamic-rd=0.00 / no-ssim-rd / signhide / no-tskip / nr-intra=0 / nr-inter=0 / no-constrained-intra / no-strong-intra-smoothing / max-merge=3 / limit-refs=3 / limit-modes / me=3 / subme=3 / merange=57 / temporal-mvp / weightp / no-weightb / no-analyze-src-pics / deblock=-3:-3 / no-sao / no-sao-non-deblock / rd=4 / no-early-skip / rskip / no-fast-intra / no-tskip-fast / no-cu-lossless / no-b-intra / no-splitrd-skip / rdpenalty=0 / psy-rd=2.00 / psy-rdoq=1.00 / no-rd-refine / no-lossless / cbqpoffs=0 / crqpoffs=0 / rc=crf / crf=10.0 / qcomp=0.70 / qpstep=4 / stats-write=0 / stats-read=0 / vbv-maxrate=160000 / vbv-bufsize=160000 / vbv-init=0.9 / crf-max=0.0 / crf-min=0.0 / ipratio=1.40 / pbratio=1.30 / aq-mode=1 / aq-strength=1.00 / cutree / zone-count=0 / no-strict-cbr / qg-size=32 / no-rc-grain / qpmax=69 / qpmin=0 / no-const-vbv / sar=1 / overscan=0 / videoformat=5 / range=0 / colorprim=9 / transfer=16 / colormatrix=9 / chromaloc=1 / chromaloc-top=2 / chromaloc-bottom=2 / display-window=0 / master-display=G(8500,39850)B(6550,2300)R(35400,14600)WP(15635,16450)L(10000000,3390) / max-cll=0,0 / min-luma=0 / max-luma=1023 / log2-max-poc-lsb=8 / vui-timing-info / vui-hrd-info / slices=1 / no-opt-qp-pps / no-opt-ref-list-length-pps / no-multi-pass-opt-rps / scenecut-bias=0.05 / no-opt-cu-delta-qp / no-aq-motion / hdr / hdr-opt / no-dhdr10-opt / no-idr-recovery-sei / analysis-reuse-level=5 / scale-factor=0 / refine-intra=0 / refine-inter=0 / refine-mv=0 / no-limit-sao / ctu-info=0 / no-lowpass-dct / refine-mv-type=0 / copy-pic=1 / max-ausize-factor=1.0 / no-dynamic-refine / no-single-sei
Default : Yes
Forced : No
Color range : Limited
Color primaries : BT.2020
Transfer characteristics : PQ
Matrix coefficients : BT.2020 non-constant
Mastering display color primar : BT.709
Mastering display luminance : min: 0.3390 cd/m2, max: 1000 cd/m2

Audio #1
ID : 2
Format : AC-3
Format/Info : Audio Coding 3
Codec ID : A_AC3
Duration : 1 h 33 min
Bit rate mode : Constant
Bit rate : 640 kb/s
Channel(s) : 6 channels
Channel positions : Front: L C R, Side: L R, LFE
Sampling rate : 48.0 kHz
Frame rate : 31.250 FPS (1536 SPF)
Bit depth : 16 bits
Compression mode : Lossy
Delay relative to video : 24 ms
Stream size : 427 MiB (3%)
Language : Turkish
Service kind : Complete Main
Default : Yes
Forced : Yes

Audio #2
ID : 3
Format : DTS
Format/Info : Digital Theater Systems
Format profile : MA / Core
Codec ID : A_DTS
Duration : 1 h 33 min
Bit rate mode : Variable / Constant
Bit rate : 2 154 kb/s / 1 509 kb/s
Channel(s) : 6 channels
Channel positions : Front: L C R, Side: L R, LFE
Sampling rate : 48.0 kHz
Frame rate : 93.750 FPS (512 SPF)
Bit depth : 16 bits
Compression mode : Lossless / Lossy
Stream size : 1.40 GiB (11%)
Language : English
Default : No
Forced : No

Text
ID : 4
Format : UTF-8
Codec ID : S_TEXT/UTF8
Codec ID/Info : UTF-8 Plain Text
Duration : 12 s 600 ms
Bit rate : 97 b/s
Count of elements : 4
Stream size : 153 Bytes (0%)
Default : Yes
Forced : No
CBox BBCode:
[B] [color=crimson] [Büyük][[/Büyük] Forum Konusu [Büyük]][/Büyük] [/color] [CENTER] ;brtfixlogo [br] [Büyük] [color=#000000] 👉 [/color] [url=https://brtfix.com/filmler/4k-ultra-hd/6073-uzun-kabus-slender-man-2018-2160p-web-rip-4k-ultra-hd-turkce-dublaj-indir.html] [yeşil] [color=#FFFF00] Uzun Kabus - Slender Man 2018 2160p WEB-Rip 4K Ultra HD Türkçe Dublaj İndir [/color] [/yeşil] [/url] [color=#000000] 👈 [/color] [/Büyük] [/B] [/CENTER]
LÜTFEN YORUM ATARAK FİLM, DİZİ, OYUN İSTEĞİNDE BULUNMAYINIZ.

Yapılan yorumlar yönetici tarafından onaylandıkdan sonra yayınlanacaktır.

BilgiYorum Ekleyebilmeniz için Sitemize Kayıt Olmanız Gerekmektedir.

Özel Mesajlar