» » » Fist Fight 2017 Türkçe Altyazı BRRip 720p 1080p Download Yükle İndir

Paylaş Fist Fight 2017 Türkçe Altyazı BRRip 720p 1080p Download Yükle İndir

Filmin Adı:
Fist Fight 2017 Türkçe Altyazı BRRip 720p 1080p Download Yükle İndir
Beğeni:

Oy kullanan 0 Kişi

Vizyon Tarihi:
3 Mart 2017 (İngiltere)
Yılı - Ülke:
ABD
Film Türü:
Komedi
Yönetmen:
Richie Keen
Film Süresi:
1s 31Dakika
IMDB PUANI:
Konusu:
Bir okul öğretmeni, farkında olmadan başka bir öğretmenin işten çıkarılmasına neden olduğunda, okul sonrası bir kavgaya karşı meydan okunur.
Ekleyen:
Medicus
BrtFix Özel Üyelik
Fist Fight 2017 Türkçe Altyazı BRRip 720p 1080p Download Yükle İndir



Fist Fight 2017 Türkçe Altyazı BRRip 720p 1080p Download Yükle İndir

BrtFix
  • Filmin Adı : Fist Fight 2017
  • Format : BRRip
  • Boyut: 1.3 GB
  • Rip : BFxRG
  • UPTOBOX
    BrtFix
  • Filmin Adı : Fist Fight 2017
  • Format : 720p
  • Boyut: 4.4 GB
  • Rip : BFxRG
  • UPTOBOX
    BrtFix
  • Filmin Adı : Fist Fight 2017
  • Format : 1080p
  • Boyut: 6.6 GB
  • Rip : BFxRG
  • UPTOBOX



    BrtFix Özel Üyelik
    Fist Fight 2017 Türkçe Altyazı BRRip 720p 1080p Download Yükle İndir
    BrtFix.Com
    Video
    ID : 1
    Format : AVC
    Format/Info : Advanced Video Codec
    Format profile : [email protected]
    Format settings, CABAC : Yes
    Format settings, ReFrames : 4 frames
    Codec ID : V_MPEG4/ISO/AVC
    Duration : 1h 31mn
    Bit rate : 8 804 Kbps
    Width : 1 920 pixels
    Height : 1 080 pixels
    Display aspect ratio : 16:9
    Frame rate mode : Constant
    Frame rate : 23.976 fps
    Color space : YUV
    Chroma subsampling : 4:2:0
    Bit depth : 8 bits
    Scan type : Progressive
    Bits/(Pixel*Frame) : 0.177
    Stream size : 5.60 GiB (85%)
    Writing library : x264 core 148 r2744 b97ae06
    Language : English

    Audio
    ID : 2
    Format : DTS
    Format/Info : Digital Theater Systems
    Mode : 16
    Format settings, Endianness : Big
    Codec ID : A_DTS
    Duration : 1h 31mn
    Bit rate mode : Constant
    Bit rate : 1 509 Kbps
    Channel(s) : 6 channels
    Channel positions : Front: L C R, Side: L R, LFE
    Sampling rate : 48.0 KHz
    Frame rate : 93.750 fps (512 spf)
    Bit depth : 24 bits
    Compression mode : Lossy
    Stream size : 982 MiB (15%)
    Language : English
    CBox BBCode:
    [B] [color=crimson] [Büyük][[/Büyük] Forum Konusu [Büyük]][/Büyük] [/color] [CENTER] ;brtfixlogo [br] [Büyük] [color=#000000] 👉 [/color] [url=https://brtfix.com/filmler/turkce-alt-yazi-filmler/3515-fist-fight-2017-turkce-altyazi-brrip-720p-1080p-download-yukle-indir.html] [yeşil] [color=#FFFF00] Fist Fight 2017 Türkçe Altyazı BRRip 720p 1080p Download Yükle İndir [/color] [/yeşil] [/url] [color=#000000] 👈 [/color] [/Büyük] [/B] [/CENTER]
    LÜTFEN YORUM ATARAK FİLM, DİZİ, OYUN İSTEĞİNDE BULUNMAYINIZ.

    Yapılan yorumlar yönetici tarafından onaylandıkdan sonra yayınlanacaktır.

    BilgiYorum Ekleyebilmeniz için Sitemize Kayıt Olmanız Gerekmektedir.

    Özel Mesaj Sistemi v3.25

    Sohbet Listesi