» » » Kral Arthur Kılıç Efsanesi - King Arthur Legend of the Sword 2017 Türkçe Altyazı BRRip 720p 1080p indir

Paylaş Kral Arthur Kılıç Efsanesi - King Arthur Legend of the Sword 2017 Türkçe Altyazı BRRip 720p 1080p indir

Filmin Adı:
Kral Arthur Kılıç Efsanesi - King Arthur Legend of the Sword 2017 Türkçe Altyazı BRRip 720p 1080p indir
Beğeni:

Oy kullanan 5 Kişi

Vizyon Tarihi:
19 Mayıs 2017 (İngiltere)
Yılı - Ülke:
ABD
Film Türü:
Aksiyon, Macera, Dram
Yönetmen:
Guy Ritchie
Film Süresi:
2s 6Dakika
IMDB PUANI:
Konusu:
Kral Arthur efsanesinin tahminen 6 seriden oluşacak zincirinin ilk halkası olan filmde efsanenin doğuşu kayadan kılıcı çıkartan Arthur’un kral seçilmesiyle başlıyor.
Ekleyen:
Medicus
BrtFix Özel Üyelik
Kral Arthur Kılıç Efsanesi - King Arthur Legend of the Sword 2017 Türkçe Altyazı BRRip 720p 1080p indir



Kral Arthur Kılıç Efsanesi - King Arthur Legend of the Sword 2017 Türkçe Altyazı BRRip 720p 1080p indir

BrtFix
  • Filmin Adı : Kral Arthur Kılıç Efsanesi - King Arthur Legend of the Sword 2017
  • Format : BRRip
  • Boyut: 1.8 GB
  • Rip : BFxRG
  • UPTOBOX
    BrtFix
  • Filmin Adı : Kral Arthur Kılıç Efsanesi - King Arthur Legend of the Sword 2017
  • Format : 720p
  • Boyut: 5.5 GB
  • Rip : BFxRG
  • UPTOBOX
    BrtFix
  • Filmin Adı : Kral Arthur Kılıç Efsanesi - King Arthur Legend of the Sword 2017
  • Format : 1080p
  • Boyut: 8.8 GB
  • Rip : BFxRG
  • UPTOBOX



    BrtFix Özel Üyelik
    Kral Arthur Kılıç Efsanesi - King Arthur Legend of the Sword 2017 Türkçe Altyazı BRRip 720p 1080p indir
    BrtFix.Com
    Video
    ID : 1
    Format : AVC
    Format/Info : Advanced Video Codec
    Format profile : [email protected]
    Format settings, CABAC : Yes
    Format settings, ReFrames : 5 frames
    Codec ID : V_MPEG4/ISO/AVC
    Duration : 2h 6mn
    Bit rate : 9 269 Kbps
    Width : 1 920 pixels
    Height : 800 pixels
    Display aspect ratio : 2.40:1
    Frame rate mode : Constant
    Frame rate : 23.976 (24000/1001) fps
    Color space : YUV
    Chroma subsampling : 4:2:0
    Bit depth : 8 bits
    Scan type : Progressive
    Bits/(Pixel*Frame) : 0.252
    Stream size : 8.00 GiB (92%)
    Writing library : x264 core 152 r2851 ba24899
    Language : English

    Audio
    ID : 2
    Format : AC-3
    Format/Info : Audio Coding 3
    Mode extension : CM (complete main)
    Format settings, Endianness : Big
    Codec ID : A_AC3
    Duration : 2h 6mn
    Bit rate mode : Constant
    Bit rate : 640 Kbps
    Channel(s) : 6 channels
    Channel positions : Front: L C R, Side: L R, LFE
    Sampling rate : 48.0 KHz
    Frame rate : 31.250 fps (1536 spf)
    Compression mode : Lossy
    Stream size : 578 MiB (6%)

    CBox BBCode:
    [B] [color=crimson] [Büyük][[/Büyük] Forum Konusu [Büyük]][/Büyük] [/color] [CENTER] ;brtfixlogo [br] [Büyük] [color=#000000] 👉 [/color] [url=https://brtfix.com/filmler/turkce-alt-yazi-filmler/3569-kral-arthur-kilic-efsanesi-king-arthur-legend-of-the-sword-2017-turkce-altyazi-brrip-720p-1080p-indir.html] [yeşil] [color=#FFFF00] Kral Arthur Kılıç Efsanesi - King Arthur Legend of the Sword 2017 Türkçe Altyazı BRRip 720p 1080p indir [/color] [/yeşil] [/url] [color=#000000] 👈 [/color] [/Büyük] [/B] [/CENTER]
    LÜTFEN YORUM ATARAK FİLM, DİZİ, OYUN İSTEĞİNDE BULUNMAYINIZ.

    Yapılan yorumlar yönetici tarafından onaylandıkdan sonra yayınlanacaktır.

    BilgiYorum Ekleyebilmeniz için Sitemize Kayıt Olmanız Gerekmektedir.

    Özel Mesajlar

    Yazışmalarınız